<?xml version="1.0" standalone="no"?>
<!DOCTYPE svg PUBLIC "-//W3C//DTD SVG 1.1//EN" "http://www.w3.org/Graphics/SVG/1.1/DTD/svg11.dtd" >
<svg>
<metadata>
Created by FontForge 20090914 at Sun Nov  4 19:18:36 2012
 By www-data
Digitized data copyright (C) 1992 - 1997 The Monotype Corporation.  Rockwell&#194;&#174; is a trademark of The Monotype Corporation which may be registered in certain jurisdictions. Portions copyright Microsoft  Corporation.  All rights reserved.
</metadata>
<defs>
<font id="Rockwell" horiz-adv-x="1174" >
  <font-face 
    font-family="Rockwell"
    font-weight="400"
    font-stretch="normal"
    units-per-em="2048"
    panose-1="2 6 6 3 2 2 5 2 4 3"
    ascent="1638"
    descent="-410"
    x-height="968"
    cap-height="1391"
    bbox="-303 -560.001 2165 1869"
    underline-thickness="102"
    underline-position="-109"
    unicode-range="U+0020-U+F002"
  />
<missing-glyph horiz-adv-x="1536" 
d="M256 0v1280h1024v-1280h-1024zM288 32h960v1216h-960v-1216z" />
    <glyph glyph-name=".notdef" horiz-adv-x="1536" 
d="M256 0v1280h1024v-1280h-1024zM288 32h960v1216h-960v-1216z" />
    <glyph glyph-name="space" unicode=" " horiz-adv-x="512" 
 />
    <glyph glyph-name="exclam" unicode="!" horiz-adv-x="598" 
d="M349 377h-102l-50 591v423h202v-423zM176 0v246h246v-246h-246z" />
    <glyph glyph-name="quotedbl" unicode="&#x22;" horiz-adv-x="831" 
d="M209 829l-55 296c-14.667 80.667 -22 135.667 -22 165c0 82 32.333 123 97 123c29.333 0 53.833 -9.83301 73.5 -29.5s29.5 -45.5 29.5 -77.5c0 -28 -8.66699 -89 -26 -183l-54 -294h-43zM575 829l-54 291c-16 85.333 -24 142.333 -24 171c0 81.333 34 122 102 122
c30 0 54.167 -10.167 72.5 -30.5s27.5 -45.5 27.5 -75.5c0 -58 -6.33301 -120 -19 -186l-57 -292h-48z" />
    <glyph glyph-name="numbersign" unicode="#" horiz-adv-x="1366" 
d="M552 1019h396l81 391h147l-81 -391h185v-147h-216l-73 -353h289v-147h-320l-81 -391h-147l81 391h-396l-81 -391h-147l81 391h-185v147h216l73 353h-289v147h320l81 391h147zM521 872l-73 -353h396l73 353h-396z" />
    <glyph glyph-name="dollar" unicode="$" horiz-adv-x="1110" 
d="M471 -20c-124 5.33301 -223.001 47.166 -297.001 125.499s-111 173.833 -111 286.5c0 6 0.333008 15.333 1 28h182c10 -166.667 85 -259.334 225 -278.001v460c-254 50 -381 178.667 -381 386c0 110.667 33.833 201.334 101.5 272.001s160.834 111 279.501 121v63h151
v-63c88 -8.66699 166.5 -42.667 235.5 -102s103.5 -164 103.5 -314v-24h-176c0 85.333 -12.667 148.833 -38 190.5s-67 69.167 -125 82.5v-444c160 -30 267 -76.167 321 -138.5s81 -141.166 81 -236.499c0 -121.333 -35 -217.5 -105 -288.5s-169 -113.167 -297 -126.5v-155
h-151v155zM470.999 804v417.999c-120.667 -21.333 -181 -89.666 -181 -204.999c0 -109.333 60.333 -180.333 181 -213zM621.999 569.999l-0.000976562 -426c140 26 210 100.333 210 223c0 50 -13.667 92 -41 126s-83.666 59.667 -168.999 77z" />
    <glyph glyph-name="percent" unicode="%" horiz-adv-x="1985" 
d="M164 1040c0 111.333 25 201.333 75 270s124 103 222 103c91.333 0 163.666 -32.333 216.999 -97s80 -156.667 80 -276c0 -113.333 -25.5 -203.666 -76.5 -270.999s-124.5 -101 -220.5 -101c-91.333 0 -163.666 32.167 -216.999 96.5s-80 156.166 -80 275.499zM308 1041
c0 -184.667 51 -277 153 -277c101.333 0 152 92 152 276c0 184.667 -50.667 277 -152 277c-102 0 -153 -92 -153 -276zM367 0l1104 1391h142l-1096 -1391h-150zM1226 351c0 120 26.833 212 80.5 276s125.5 96 215.5 96c99.333 0 173.666 -34.5 222.999 -103.5
s74 -158.5 74 -268.5c0 -120 -26.667 -212.167 -80 -276.5s-125.333 -96.5 -216 -96.5c-91.333 0 -163.666 32.167 -216.999 96.5s-80 156.5 -80 276.5zM1370 351c0 -184.667 50.667 -277 152 -277c102 0 153 92 153 276c0 184.667 -50.667 277 -152 277
c-102 0 -153 -92 -153 -276z" />
    <glyph glyph-name="ampersand" unicode="&#x26;" horiz-adv-x="1386" 
d="M1055 736l285.001 0.000976562v-170h-147c-36 -128.667 -82 -228 -138 -298l73 -94h212v-174h-317l-92 122c-120.667 -96 -244 -144 -370 -144c-144 0 -263 44.667 -357 134s-141 201 -141 335c0 185.333 105.667 324.333 317 417c-63.333 80.667 -95 161.667 -95 243
c0 89.333 33.833 162.666 101.5 219.999s146.5 86 236.5 86c93.333 0 172.166 -28.5 236.499 -85.5s96.5 -127.833 96.5 -212.5c0 -74 -22.667 -134.667 -68 -182s-120 -92.333 -224 -135l283 -383c50.667 88.667 86.667 195.667 108 321zM564.001 930.001
c80 33.333 134.501 64.668 163.501 94.001s43.5 61.666 43.5 96.999c0 32.667 -12.333 62.167 -37 88.5s-60.334 39.5 -107.001 39.5c-42 0 -77 -12.667 -105 -38s-42 -58.333 -42 -99c0 -36 24 -90.667 72 -164zM486.002 736.003c-144 -64 -216.002 -157.333 -216.002 -280
c0 -81.333 30.333 -152.5 91 -213.5s134.334 -91.5 221.001 -91.5c88.667 0 169.334 37 242.001 111z" />
    <glyph glyph-name="quotesingle" unicode="'" horiz-adv-x="362" 
d="M158 828l-54 296c-15.333 82.667 -23 136 -23 160c0 86 32.333 129 97 129c32 0 57.333 -10.333 76 -31s28 -45.667 28 -75c0 -26.667 -8.66699 -88 -26 -184l-54 -295h-44z" />
    <glyph glyph-name="parenleft" unicode="(" horiz-adv-x="768" 
d="M711 1416v-155.001c-72 -38 -137.167 -97.5 -195.5 -178.5s-97.333 -166.167 -117 -255.5s-29.5 -203.333 -29.5 -342c0 -156 12.667 -280.333 38 -373s65.5 -172.5 120.5 -239.5s116.167 -120.833 183.5 -161.5v-156c-138.667 56.667 -264.167 164.5 -376.5 323.5
s-168.5 361.833 -168.5 608.5c0 219.333 49.167 411.333 147.5 576s230.833 282.334 397.5 353.001z" />
    <glyph glyph-name="parenright" unicode=")" horiz-adv-x="768" 
d="M57 1416c161.333 -72 292.5 -187.33 393.5 -345.997s151.5 -353.334 151.5 -584.001c0 -222.667 -46.833 -411.334 -140.5 -566.001s-228.5 -276.334 -404.5 -365.001v156c82.667 50 150.834 113.333 204.501 190s90 159.167 109 247.5s28.5 200.5 28.5 336.5
c0 144 -10.5 261 -31.5 351s-61.333 174.333 -121 253s-122.834 136 -189.501 172v155z" />
    <glyph glyph-name="asterisk" unicode="*" horiz-adv-x="1067" 
d="M622 1413l0.00195312 -169c-40 -82 -60.667 -164.333 -62 -247c89.333 32 161 77.333 215 136l167 53l55 -177l-164 -55c-22 4 -42.333 6 -61 6c-72 0 -133.333 -7.33301 -184 -22c63.333 -79.333 125.666 -132 186.999 -158l101 -140l-148 -107l-106 141
c-8.66699 84 -38.667 161 -90 231c-51.333 -70 -81.333 -147 -90 -231l-106 -141l-148 107l101 140c61.333 26 123.666 78.667 186.999 158c-50.667 14.667 -112 22 -184 22c-18 0 -38.333 -2 -61 -6l-164 55l55 177l167 -53c54 -58.667 125.667 -104 215 -136
c-1.33301 82.667 -22 165 -62 247v169h180z" />
    <glyph glyph-name="plus" unicode="+" horiz-adv-x="1366" 
d="M135 774h470v469h156v-469h470v-157h-470v-469h-156v469h-470v157z" />
    <glyph glyph-name="comma" unicode="," horiz-adv-x="598" 
d="M176 0v246h246v-214c0 -72.667 -5.66699 -129 -17 -169s-35.5 -72.833 -72.5 -98.5s-89.167 -39.5 -156.5 -41.5v104c80 12 120 61.667 120 149c0 5.33301 -0.333008 13.333 -1 24h-119z" />
    <glyph glyph-name="hyphen" unicode="-" horiz-adv-x="725" 
d="M63 575h600v-190h-600v190z" />
    <glyph glyph-name="hyphen" unicode="&#xad;" horiz-adv-x="725" 
d="M63 575h600v-190h-600v190z" />
    <glyph glyph-name="period" unicode="." horiz-adv-x="598" 
d="M176 0v246h246v-246h-246z" />
    <glyph glyph-name="slash" unicode="/" horiz-adv-x="897" 
d="M720 1419h166l-710 -1441h-166z" />
    <glyph glyph-name="zero" unicode="0" horiz-adv-x="1110" 
d="M72 695c0 229.333 43.168 406.333 129.501 531s204.166 187 353.499 187c154.667 0 273.667 -64.667 357 -194s125 -304 125 -524c0 -228 -43 -404.5 -129 -529.5s-203.667 -187.5 -353 -187.5c-156 0 -275.5 65 -358.5 195s-124.5 304 -124.5 522zM276.001 695
c0 -198.667 24.001 -340.833 72.001 -426.5s117 -128.5 207 -128.5s159 43 207 129s72 228 72 426c0 201.333 -24.333 344.333 -73 429s-117.334 127 -206.001 127c-100 0 -171.5 -48.167 -214.5 -144.5s-64.5 -233.5 -64.5 -411.5z" />
    <glyph glyph-name="one" unicode="1" horiz-adv-x="1110" 
d="M485 169v1053h-190v167h380v-1220h181v-169h-561v169h190z" />
    <glyph glyph-name="two" unicode="2" horiz-adv-x="1110" 
d="M984 497l-12.998 -496.996h-889c0 96 17.167 187.667 51.5 275s82.666 163.666 144.999 228.999s157.5 144.666 285.5 237.999c80.667 59.333 135.334 108.833 164.001 148.5s43 85.834 43 138.501c0 64.667 -20.333 117.5 -61 158.5s-96.667 61.5 -168 61.5
c-83.333 0 -144.333 -23.333 -183 -70s-58 -123.334 -58 -230.001c0 -26.667 0.666992 -52 2 -76h-185c-0.666992 24 -1 43.667 -1 59c0 150.667 35.667 268.5 107 353.5s176 127.5 314 127.5c139.333 0 246.166 -36.333 320.499 -109s111.5 -162 111.5 -268
c0 -88.667 -24.333 -164.334 -73 -227.001s-141.667 -142.334 -279 -239.001c-133.333 -94.667 -220.833 -171.667 -262.5 -231s-65.834 -112 -72.501 -158h524l8 316h169z" />
    <glyph glyph-name="three" unicode="3" horiz-adv-x="1110" 
d="M419 640l-0.000976562 172c97.333 0 168.166 5.66699 212.499 17s78.833 33.833 103.5 67.5s37 76.167 37 127.5c0 62 -18.167 115.333 -54.5 160s-90.166 67 -161.499 67c-78.667 0 -136 -23.5 -172 -70.5s-55.667 -117.167 -59 -210.5h-193
c0 160 39.5 273.833 118.5 341.5s175.833 101.5 290.5 101.5c139.333 0 244.333 -34.333 315 -103s106 -156.334 106 -263.001c0 -78.667 -20.167 -145 -60.5 -199s-85.833 -92.333 -136.5 -115c173.333 -51.333 260 -162 260 -332
c0 -141.333 -47.5 -247.166 -142.5 -317.499s-206.5 -105.5 -334.5 -105.5c-163.333 0 -284.166 43.667 -362.499 131s-117.5 208 -117.5 362h184c3.33301 -106.667 32.5 -188.167 87.5 -244.5s128.167 -84.5 219.5 -84.5c83.333 0 148.833 23.167 196.5 69.5
s71.5 104.833 71.5 175.5c0 74 -28 134.833 -84 182.5s-145.333 71.5 -268 71.5c-16 0 -34.667 -0.333008 -56 -1z" />
    <glyph glyph-name="four" unicode="4" horiz-adv-x="1110" 
d="M617 374h-468c-16 62 -45.667 114.333 -89 157l579 871h161v-860h222v-168h-222v-205h127v-169h-458v169h148v205zM617 542v548l-365 -548h365z" />
    <glyph glyph-name="five" unicode="5" horiz-adv-x="1110" 
d="M73 444h180c10.667 -93.333 41.167 -167.666 91.5 -222.999s116.833 -83 199.5 -83c83.333 0 150.333 28.667 201 86s76 131 76 221c0 95.333 -24.667 168.166 -74 218.499s-110.666 75.5 -183.999 75.5c-110 0 -203 -55.667 -279 -167c-42.667 42 -91 75.667 -145 101
l57 716h742v-369h-172v190h-426l-31 -407c84.667 68.667 179 103 283 103c132 0 236.167 -44 312.5 -132s114.5 -197 114.5 -327c0 -137.333 -41.833 -249.833 -125.5 -337.5s-200.834 -131.5 -351.501 -131.5c-140 0 -250.667 39.667 -332 119s-127 195 -137 347z" />
    <glyph glyph-name="six" unicode="6" horiz-adv-x="1110" 
d="M986 980h-169c-10 79.333 -37.833 144 -83.5 194s-101.167 75 -166.5 75c-88.667 0 -157.667 -46.167 -207 -138.5s-75 -218.833 -77 -379.5c94.667 102.667 203.667 154 327 154c106 0 196.833 -39.167 272.5 -117.5s113.5 -183.166 113.5 -314.499
c0 -130.667 -37.333 -242.5 -112 -335.5s-176.667 -139.5 -306 -139.5c-144.667 0 -260.5 59.5 -347.5 178.5s-130.5 295.833 -130.5 530.5c0 223.333 42 400.166 126 530.499s205 195.5 363 195.5c124 0 220.167 -40.833 288.5 -122.5s104.5 -185.167 108.5 -310.5z
M293 521c30 -252 122 -378 276 -378c78.667 0 140 29 184 87s66 127.333 66 208c0 79.333 -20.833 143.333 -62.5 192s-97.834 73 -168.501 73c-99.333 0 -197.666 -60.667 -294.999 -182z" />
    <glyph glyph-name="seven" unicode="7" horiz-adv-x="1110" 
d="M223 0v169h185c10 179.333 51.667 367 125 563s153 355.333 239 478h-479v-187h-172v366h869v-142c-90.667 -108.667 -176.667 -273.5 -258 -494.5s-122 -415.5 -122 -583.5h162v-169h-549z" />
    <glyph glyph-name="eight" unicode="8" horiz-adv-x="1110" 
d="M315 727c-136 79.333 -204.001 186.333 -204.001 321c0 118 42.333 208.333 127 271s186.334 94 305.001 94c140 0 250.667 -32.667 332 -98s122 -154.333 122 -267c0 -133.333 -68 -240.333 -204 -321c164.667 -64.667 247 -179.334 247 -344.001
c0 -122.667 -42.833 -220.834 -128.5 -294.501s-201.167 -110.5 -346.5 -110.5c-163.333 0 -287 36.833 -371 110.5s-126 171.834 -126 294.501c0 164.667 82.333 279.334 247 344.001zM298.999 1030c0 -73.333 23.3301 -129.167 69.9971 -167.5
s110.334 -57.5 191.001 -57.5c68.667 0 127.334 18.5 176.001 55.5s73 93.5 73 169.5c0 145.333 -87 218 -261 218c-75.333 0 -135.666 -18.667 -180.999 -56s-68 -91.333 -68 -162zM269.996 390.999c0 -73.333 25.333 -133.498 76 -180.498s120 -70.5 208 -70.5
c83.333 0 151.5 22.667 204.5 68s79.5 106.666 79.5 183.999c0 74 -24.833 134.333 -74.5 181s-121.5 70 -215.5 70c-81.333 0 -148 -22.333 -200 -67s-78 -106.334 -78 -185.001z" />
    <glyph glyph-name="nine" unicode="9" horiz-adv-x="1110" 
d="M104 411h169.002c10 -79.333 38 -144 84 -194s101.333 -75 166 -75c89.333 0 158.666 46.333 207.999 139s74.666 219 75.999 379c-94 -102.667 -202.667 -154 -326 -154c-110 0 -202 39.667 -276 119s-111 183.666 -111 312.999c0 130.667 37.333 242.5 112 335.5
s177 139.5 307 139.5c144.667 0 260.334 -59.5 347.001 -178.5s130 -295.833 130 -530.5c0 -223.333 -41.833 -400.166 -125.5 -530.499s-204.834 -195.5 -363.501 -195.5c-123.333 0 -219.333 40.833 -288 122.5s-105 185.167 -109 310.5zM797.002 870
c-28.667 252 -120.667 378 -276 378c-76.667 0 -137.5 -28.5 -182.5 -85.5s-67.5 -126.833 -67.5 -209.5c0 -75.333 19.833 -138.333 59.5 -189s97.167 -76 172.5 -76c98.667 0 196.667 60.667 294 182z" />
    <glyph glyph-name="colon" unicode=":" horiz-adv-x="598" 
d="M176 722v246h246v-246h-246zM176 0v246h246v-246h-246z" />
    <glyph glyph-name="semicolon" unicode=";" horiz-adv-x="598" 
d="M176 722v246h246v-246h-246zM176 0v246h246v-214c0 -72.667 -5.66699 -129 -17 -169s-35.5 -72.833 -72.5 -98.5s-89.167 -39.5 -156.5 -41.5v104c80 12 120 61.667 120 149c0 5.33301 -0.333008 13.333 -1 24h-119z" />
    <glyph glyph-name="less" unicode="&#x3c;" horiz-adv-x="1366" 
d="M1231 165l-1096 460v141l1096 460v-170l-882 -361l882 -360v-170z" />
    <glyph glyph-name="equal" unicode="=" horiz-adv-x="1366" 
d="M135 1009h1096v-157h-1096v157zM135 539h1096v-157h-1096v157z" />
    <glyph glyph-name="greater" unicode="&#x3e;" horiz-adv-x="1366" 
d="M135 1226l1096 -460v-141l-1096 -460v170l882 360l-882 361v170z" />
    <glyph glyph-name="question" unicode="?" horiz-adv-x="961" 
d="M486 375h-103l-24 442c31.333 -8 62.666 -12 93.999 -12c87.333 0 150.333 22 189 66s58 96.333 58 157c0 70.667 -20.833 125.5 -62.5 164.5s-94.5 58.5 -158.5 58.5c-78 0 -135.833 -22.333 -173.5 -67s-56.5 -100.334 -56.5 -167.001c0 -14 0.333008 -30.333 1 -49
h-187c-0.666992 18 -1 33.333 -1 46c0 136.667 40.5 237.334 121.5 302.001s177.5 97 289.5 97c134.667 0 239 -36.167 313 -108.5s111 -167.5 111 -285.5c0 -114 -35.167 -205 -105.5 -273s-153.166 -102 -248.499 -102c-7.33301 0 -18 0.333008 -32 1zM311 0v246h245v-246
h-245z" />
    <glyph glyph-name="at" unicode="@" horiz-adv-x="2068" 
d="M1164 138c-96.667 -110.667 -199.001 -165.998 -307.001 -165.998c-98 0 -182.833 41.167 -254.5 123.5s-107.5 190.5 -107.5 324.5c0 158 53 303.833 159 437.5s226 200.5 360 200.5c126.667 0 227.334 -61 302.001 -183l34 155h179l-144 -672
c-20 -92.667 -30 -144.334 -30 -155.001c0 -19.333 7.33301 -35.166 22 -47.499s30 -18.5 46 -18.5c35.333 0 85.5 22.5 150.5 67.5s120.833 112.167 167.5 201.5s70 184.333 70 285c0 182.667 -68.833 333.5 -206.5 452.5s-307.167 178.5 -508.5 178.5
c-246.667 0 -447.334 -83.5 -602.001 -250.5s-232 -370.167 -232 -609.5c0 -248 76.667 -438.333 230 -571s363.666 -199 630.999 -199c156.667 0 296.5 26.333 419.5 79s217.833 127 284.5 223h181c-55.333 -114.667 -158.666 -218.334 -309.999 -311.001
s-342 -139 -572 -139c-322.667 0 -572 81.833 -748 245.5s-264 381.5 -264 653.5c0 273.333 86.667 512.333 260 717s417 307 731 307c256 0 462.333 -75.833 619 -227.5s235 -335.834 235 -552.501c0 -184.667 -62.667 -350.167 -188 -496.5
s-263.666 -219.5 -414.999 -219.5c-66.667 0 -114 13.667 -142 41s-44.667 69.333 -50 126zM679.999 403.002c0 -83.333 21.001 -151.335 63.001 -204.002s92 -79 150 -79c91.333 0 175.166 50.833 251.499 152.5s114.5 218.834 114.5 351.501
c0 88.667 -22.167 158.5 -66.5 209.5s-99.5 76.5 -165.5 76.5c-101.333 0 -184.5 -55.667 -249.5 -167s-97.5 -224.666 -97.5 -339.999z" />
    <glyph glyph-name="A" unicode="A" horiz-adv-x="1430" 
d="M970 489h-500l-107 -315h169v-174h-548v174h168l380 1060h-169v157h711v-157h-173l389 -1060h156v-174h-545v174h173zM918 652l-185 582h-19l-192 -582h396z" />
    <glyph glyph-name="B" unicode="B" horiz-adv-x="1194" 
d="M217 174l-0.000976562 1043h-171v174h463c127.333 0 222.833 -7.66699 286.5 -23s119.834 -54.166 168.501 -116.499s73 -135.5 73 -219.5c0 -64.667 -14.5 -123 -43.5 -175s-71.5 -91.333 -127.5 -118c77.333 -26.667 136.833 -70.834 178.5 -132.501
s62.5 -132.167 62.5 -211.5c0 -68.667 -15.5 -131 -46.5 -187s-72.167 -99.333 -123.5 -130s-107.5 -51.334 -168.5 -62.001s-144.167 -16 -249.5 -16h-473v174h171zM426.999 812.001h131c100 0 169.833 17.5 209.5 52.5s59.5 86.5 59.5 154.5c0 132 -89.667 198 -269 198
h-131v-405zM426.999 174.001l79 0.000976562c103.333 0 179 5.16699 227 15.5s87.167 34.666 117.5 72.999s45.5 87.5 45.5 147.5c0 54.667 -14.5 100.5 -43.5 137.5s-66.333 61.667 -112 74s-110.167 18.5 -193.5 18.5h-120v-466z" />
    <glyph glyph-name="C" unicode="C" horiz-adv-x="1556" 
d="M1277 566l181.002 -101.002c-40.667 -154.667 -122.834 -274.5 -246.501 -359.5s-265.834 -127.5 -426.501 -127.5c-210.667 0 -379.667 68.333 -507 205s-191 305.667 -191 507c0 220.667 64 396.334 192 527.001s295 196 501 196c182 0 335 -49.667 459 -149v127h180
v-447h-180c-40 90.667 -101.667 160.834 -185 210.501s-171 74.5 -263 74.5c-138.667 0 -252.5 -50 -341.5 -150s-133.5 -226.333 -133.5 -379c0 -156.667 47.667 -284.667 143 -384s208.333 -149 339 -149c107.333 0 205 34.5 293 103.5s150 167.5 186 295.5z" />
    <glyph glyph-name="D" unicode="D" horiz-adv-x="1493" 
d="M215 174v1043h-189v174h538c148.667 0 263.167 -7.66699 343.5 -23s158.166 -50 233.499 -104s135.5 -128.167 180.5 -222.5s67.5 -201.833 67.5 -322.5c0 -137.333 -21.667 -256.666 -65 -357.999s-100.166 -177 -170.499 -227s-154 -84.833 -251 -104.5
s-220.5 -29.5 -370.5 -29.5h-506v174h189zM425 173.999h109.998c122.667 0 219.834 7.66699 291.501 23s132.167 41.5 181.5 78.5s89.333 92.833 120 167.5s46 162.667 46 264c0 120.667 -25.167 223 -75.5 307s-114.666 138.833 -192.999 164.5s-198.833 38.5 -361.5 38.5
h-119v-1043z" />
    <glyph glyph-name="E" unicode="E" horiz-adv-x="1280" 
d="M236 174v1043h-180v174h1156v-419h-172v245h-594v-414h517v-174h-517v-455h594v253h172v-427h-1156v174h180z" />
    <glyph glyph-name="F" unicode="F" horiz-adv-x="1130" 
d="M213 174v1043h-176v174h1079v-419h-172v245h-521v-412h449v-174h-449v-457h178v-174h-564v174h176z" />
    <glyph glyph-name="G" unicode="G" horiz-adv-x="1642" 
d="M1038 671l505.998 -0.000976562c0.666992 -18 1 -34 1 -48c0 -195.333 -64 -351.666 -192 -468.999s-297 -176 -507 -176c-251.333 0 -438.666 71.5 -561.999 214.5s-185 312.167 -185 507.5c0 204.667 63 374.667 189 510s297 203 513 203c194 0 356.667 -59 488 -177
v155h177v-457h-177c-33.333 76.667 -92.5 144.834 -177.5 204.501s-182.167 89.5 -291.5 89.5c-152 0 -272 -51.333 -360 -154s-132 -226.334 -132 -371.001c0 -166 50.167 -297.667 150.5 -395s221.166 -146 362.499 -146c110.667 0 209.334 30.833 296.001 92.5
s137.334 142.5 152.001 242.5h-251v174z" />
    <glyph glyph-name="H" unicode="H" horiz-adv-x="1450" 
d="M213 174v1043h-158v174h532v-174h-164v-398h605v398h-163v174h532v-174h-159v-1043h159v-174h-532v174h163v471h-605v-471h164v-174h-532v174h158z" />
    <glyph glyph-name="I" unicode="I" horiz-adv-x="641" 
d="M215 174v1043h-151v174h512v-174h-151v-1043h151v-174h-512v174h151z" />
    <glyph glyph-name="J" unicode="J" horiz-adv-x="641" 
d="M-72 -413l0.000976562 195c52 -13.333 102 -20 150 -20c60 0 99.833 16.5 119.5 49.5s29.5 99.167 29.5 198.5v1207h-178v174h566v-174h-178v-1217c0 -104.667 -7.83301 -184.167 -23.5 -238.5s-53.334 -100.833 -113.001 -139.5s-130.5 -58 -212.5 -58
c-56.667 0 -110 7.66699 -160 23z" />
    <glyph glyph-name="K" unicode="K" horiz-adv-x="1280" 
d="M211 174v1043h-174v174h563v-174h-179v-1043h160v-174h-544v174h174zM428 734l446 483h-159v174h545v-174h-148l-428 -483l440 -560h149v-174h-565v174h150z" />
    <glyph glyph-name="L" unicode="L" horiz-adv-x="1067" 
d="M209 174v1043h-180v174h569v-174h-171v-1043h426v473h196v-647h-1020v174h180z" />
    <glyph glyph-name="M" unicode="M" horiz-adv-x="1792" 
d="M217 174v1043h-167v174h476l366 -953l370 953h481v-174h-168v-1043h168v-174h-524v174h166v1043l-480 -1231h-41l-475 1231v-1043h153v-174h-492v174h167z" />
    <glyph glyph-name="N" unicode="N" horiz-adv-x="1473" 
d="M209 174v1043h-199v174h475l610 -1081v907h-197v174h571v-174h-205v-1231h-216l-667 1187v-999h199v-174h-570v174h199z" />
    <glyph glyph-name="O" unicode="O" horiz-adv-x="1642" 
d="M102 702c0 202 66 371.001 198 507.001s304 204 516 204c214 0 388.333 -68 523 -204s202 -306.333 202 -511c0 -208.667 -68.5 -380.834 -205.5 -516.501s-311.167 -203.5 -522.5 -203.5c-134.667 0 -258.5 32.167 -371.5 96.5s-197.833 154 -254.5 269
s-85 234.5 -85 358.5zM331 701.001c0 -152.667 44.668 -280.668 134.001 -384.001s206.666 -155 351.999 -155c144 0 262.333 52.833 355 158.5s139 231.834 139 378.501c0 148 -47.167 273.167 -141.5 375.5s-212.833 153.5 -355.5 153.5c-142 0 -258 -50.333 -348 -151
s-135 -226 -135 -376z" />
    <glyph glyph-name="P" unicode="P" 
d="M216 174l0.00195312 1043h-175v174h497c146 0 255.333 -10.333 328 -31s133.5 -67.5 182.5 -140.5s73.5 -159.167 73.5 -258.5c0 -79.333 -16.167 -150.5 -48.5 -213.5s-72.333 -109.5 -120 -139.5s-101.334 -50.167 -161.001 -60.5s-149.834 -15.5 -270.501 -15.5h-96
v-358h180v-174h-565v174h175zM426.002 700l119.999 0.000976562c136.667 0 231.334 19.5 284.001 58.5s79 107.833 79 206.5c0 62.667 -14 114.667 -42 156s-62.667 67.666 -104 78.999s-110.333 17 -207 17h-130v-517z" />
    <glyph glyph-name="Q" unicode="Q" horiz-adv-x="1642" 
d="M916 -15l41.001 -17.9961c108.667 -44.667 192.334 -67 251.001 -67c18.667 0 43 3 73 9l-74 -172c-20 -3.33301 -38.333 -5 -55 -5c-66 0 -157 28 -273 84c-100 48 -178.667 72 -236 72c-59.333 0 -107 -16.333 -143 -49l-59 85c39.333 42.667 90.666 70.667 153.999 84
c-112 35.333 -206.833 92.166 -284.5 170.499s-131.834 162.666 -162.501 252.999s-46 180.166 -46 269.499c0 196.667 65 364.5 195 503.5s303 208.5 519 208.5s390.667 -67.667 524 -203s200 -306 200 -512c0 -109.333 -21 -213.5 -63 -312.5s-114 -187.833 -216 -266.5
s-217 -123.334 -345 -134.001zM331.001 701.004c0 -152.667 44.668 -280.668 134.001 -384.001s206.666 -155 351.999 -155c144 0 262.333 52.833 355 158.5s139 231.834 139 378.501c0 148 -47.167 273.167 -141.5 375.5s-212.833 153.5 -355.5 153.5
c-142 0 -258 -50.333 -348 -151s-135 -226 -135 -376z" />
    <glyph glyph-name="R" unicode="R" horiz-adv-x="1237" 
d="M217 174l0.000976562 1043h-191v174h565c118 0 211.667 -9.16699 281 -27.5s126.666 -57 171.999 -116s68 -132.5 68 -220.5c0 -184 -95.667 -299.667 -287 -347l246 -506h170v-174h-301l-317 650h-196v-476h178v-174h-579v174h191zM427.001 824l164 0.00195312
c79.333 0 137.833 5.16699 175.5 15.5s68.5 31.333 92.5 63s36 74.167 36 127.5c0 45.333 -12.167 83.666 -36.5 114.999s-54.333 51.166 -90 59.499s-90.167 12.5 -163.5 12.5h-178v-393z" />
    <glyph glyph-name="S" unicode="S" horiz-adv-x="1087" 
d="M71 0v504.998h174v-123c83.333 -151.333 192.333 -227 327 -227c68.667 0 126.667 21 174 63s71 97 71 165c0 66 -19.333 113.5 -58 142.5s-111.667 57.833 -219 86.5c-124.667 33.333 -217 64.833 -277 94.5s-107.833 72 -143.5 127s-53.5 120.167 -53.5 195.5
c0 116.667 38.833 209.834 116.5 279.501s175.167 104.5 292.5 104.5c111.333 0 214.666 -36 309.999 -108v93h170v-422h-170v97c-71.333 107.333 -169.666 161 -294.999 161c-76 0 -134.333 -17.5 -175 -52.5s-61 -76.833 -61 -125.5c0 -37.333 10.333 -70.166 31 -98.499
s47 -49.166 79 -62.499s95 -32 189 -56c122.667 -32 211.667 -61.833 267 -89.5s103 -73.834 143 -138.501s60 -139 60 -223c0 -118.667 -41.833 -216.667 -125.5 -294s-187.167 -116 -310.5 -116c-126.667 0 -240.667 45.667 -342 137v-115h-174z" />
    <glyph glyph-name="T" unicode="T" 
d="M483 174v1043h-287v-355h-172v529h1127v-529h-172v355h-286v-1043h181v-174h-569v174h178z" />
    <glyph glyph-name="U" unicode="U" horiz-adv-x="1386" 
d="M409 1217l0.000976562 -695.999c0 -108 5.5 -182.667 16.5 -224s38.5 -76.5 82.5 -105.5s100.667 -43.5 170 -43.5c82.667 0 146 12.5 190 37.5s73.167 58.667 87.5 101s21.5 117.166 21.5 224.499v706h-161v174h544v-174h-174v-727
c0 -98 -4.16699 -169.167 -12.5 -213.5s-30.833 -90.666 -67.5 -138.999s-88.334 -87 -155.001 -116s-147.667 -43.5 -243 -43.5c-105.333 0 -193 13.5 -263 40.5s-122.667 63.167 -158 108.5s-58.833 93.666 -70.5 144.999s-17.5 131 -17.5 239v706h-172v174h547v-174h-165
z" />
    <glyph glyph-name="V" unicode="V" horiz-adv-x="1450" 
d="M635 -14l-467 1231h-172v174h549v-174h-161l354 -934l345 934h-162v174h534v-174h-169l-458 -1231h-193z" />
    <glyph glyph-name="W" unicode="W" horiz-adv-x="2048" 
d="M521 -14l-354 1231h-167v174h532v-174h-167l263 -910l253 910h-166v174h639v-174h-163l254 -910l258 910h-165v174h511v-174h-164l-347 -1231h-199l-313 1100l-311 -1100h-194z" />
    <glyph glyph-name="X" unicode="X" horiz-adv-x="1343" 
d="M207 174l354 527l-354 516h-179v174h560v-174h-157l241 -353l243 353h-161v174h534v-174h-174l-343 -499l373 -544h181v-174h-571v174h161l-255 378l-254 -378h169v-174h-554v174h186z" />
    <glyph glyph-name="Y" unicode="Y" horiz-adv-x="1323" 
d="M563 174v459l-414 584h-170v174h572v-174h-175l307 -429l280 429h-175v174h555v-174h-184l-386 -584v-459h190v-174h-587v174h187z" />
    <glyph glyph-name="Z" unicode="Z" horiz-adv-x="1153" 
d="M51 0v174l745 1043h-539v-245h-172v419h977v-154l-758 -1063h609v269h172v-443h-1034z" />
    <glyph glyph-name="bracketleft" unicode="[" horiz-adv-x="768" 
d="M709 1391v-139h-304v-1530h304v-139h-494v1808h494z" />
    <glyph glyph-name="backslash" unicode="\" horiz-adv-x="897" 
d="M176 1419l710 -1441h-166l-710 1441h166z" />
    <glyph glyph-name="bracketright" unicode="]" horiz-adv-x="768" 
d="M59 1391h494v-1808h-494v139h304v1530h-304v139z" />
    <glyph glyph-name="asciicircum" unicode="^" horiz-adv-x="961" 
d="M239 590h-185l353 801h145l355 -801h-181l-247 597z" />
    <glyph glyph-name="underscore" unicode="_" horiz-adv-x="1024" 
d="M-12 -154h1048v-102h-1048v102z" />
    <glyph glyph-name="grave" unicode="`" horiz-adv-x="682" 
d="M528 1096h-128l-289 317h276z" />
    <glyph glyph-name="a" unicode="a" horiz-adv-x="1087" 
d="M1061 169l-0.00292969 -168.999h-332v118c-92 -89.333 -194.667 -134 -308 -134c-88 0 -164.5 28.667 -229.5 86s-97.5 130.666 -97.5 219.999c0 90 34.5 164.667 103.5 224s152.167 89 249.5 89c90.667 0 178.334 -27.333 263.001 -82v96
c0 49.333 -4.66699 87.333 -14 114s-31.166 50.667 -65.499 72s-79.166 32 -134.499 32c-95.333 0 -164.333 -38 -207 -114l-182 48c80.667 150.667 220 226 418 226c72.667 0 135.5 -9.83301 188.5 -29.5s92.5 -45 118.5 -76s43.5 -64.5 52.5 -100.5
s13.5 -93.333 13.5 -172v-448h163zM709.997 360.001c-82 64 -165 96.001 -249 96.001c-52.667 0 -96.667 -15.333 -132 -46s-53 -70.334 -53 -119.001c0 -45.333 15.5 -83.333 46.5 -114s73.167 -46 126.5 -46c92 0 179 38.667 261 116v113z" />
    <glyph glyph-name="b" unicode="b" horiz-adv-x="1323" 
d="M54 0l0.000976562 169h172v1053h-172v169h358v-560c95.333 109.333 212.333 164 351 164c133.333 0 245.166 -45.833 335.499 -137.5s135.5 -212.5 135.5 -362.5c0 -144 -44.167 -265.167 -132.5 -363.5s-201.5 -147.5 -339.5 -147.5c-77.333 0 -148 16.667 -212 50
s-110 70.333 -138 111v-145h-358zM418.001 482c0 -100.667 30.832 -180.5 92.499 -239.5s132.834 -88.5 213.501 -88.5c84.667 0 157.667 31.333 219 94s92 146.667 92 252c0 102 -30.5 181.167 -91.5 237.5s-132.5 84.5 -214.5 84.5c-80.667 0 -152.667 -29.167 -216 -87.5
s-95 -142.5 -95 -252.5z" />
    <glyph glyph-name="c" unicode="c" horiz-adv-x="1067" 
d="M990 968v-366.001h-170c-8.66699 70 -37.167 123.667 -85.5 161s-104.5 56 -168.5 56c-85.333 0 -154.666 -30.167 -207.999 -90.5s-80 -139.5 -80 -237.5c0 -91.333 25.333 -171.833 76 -241.5s124 -104.5 220 -104.5c133.333 0 230 63.333 290 190l157 -74
c-86.667 -192.667 -238.334 -289 -455.001 -289c-153.333 0 -274 52.333 -362 157s-132 225.334 -132 362.001c0 146 48 266.5 144 361.5s206.667 142.5 332 142.5c107.333 0 198 -31.667 272 -95v68h170z" />
    <glyph glyph-name="d" unicode="d" horiz-adv-x="1280" 
d="M1275 169v-169h-364v142c-94.667 -105.333 -210 -158 -346 -158c-126 0 -236.667 43 -332 129s-143 208.333 -143 367c0 159.333 49 285 147 377s208.667 138 332 138c130.667 0 244.667 -52 342 -156v383h-186v169h376v-1222h174zM293 485
c0 -106.667 30.167 -188.667 90.5 -246s132.5 -86 216.5 -86c81.333 0 153.5 30.167 216.5 90.5s94.5 143.833 94.5 250.5c0 107.333 -32.167 188.333 -96.5 243s-136.5 82 -216.5 82c-86 0 -158.333 -32.167 -217 -96.5s-88 -143.5 -88 -237.5z" />
    <glyph glyph-name="e" unicode="e" 
d="M1098 436l-814.001 -0.000976562c12 -89.333 47.333 -161.666 106 -216.999s133.667 -83 225 -83c132.667 0 237.667 53.333 315 160l168 -74c-54.667 -84.667 -125.667 -147.5 -213 -188.5s-178.666 -61.5 -273.999 -61.5c-148 0 -274.5 46.167 -379.5 138.5
s-157.5 216.833 -157.5 373.5c0 148.667 51.167 271 153.5 367s219.833 144 352.5 144c130 0 247.833 -46.833 353.5 -140.5s160.5 -233.167 164.5 -418.5zM901.999 573.999c-13.333 68 -48.668 129.501 -106.001 184.501s-127.666 82.5 -210.999 82.5
c-76 0 -141 -24.833 -195 -74.5s-87 -113.834 -99 -192.501h611z" />
    <glyph glyph-name="f" unicode="f" horiz-adv-x="598" 
d="M197 169l0.000976562 630.001h-141v168h141v140c0 118 25 199.5 75 244.5s109 67.5 177 67.5c146.667 0 231.667 -74.333 255 -223l-169 -26c-6.66699 62 -31 93 -73 93c-28.667 0 -48.334 -9.83301 -59.001 -29.5s-16 -61.834 -16 -126.501v-140h166v-168h-166v-630h184
v-169h-515v169h141z" />
    <glyph glyph-name="g" unicode="g" horiz-adv-x="1280" 
d="M1257 968v-168.999h-174v-721c0 -97.333 -5 -169.5 -15 -216.5s-34.167 -95 -72.5 -144s-95.833 -90.167 -172.5 -123.5s-162.334 -50 -257.001 -50c-142.667 0 -270 43 -382 129l124 138c84 -65.333 175.333 -98 274 -98c54.667 0 105.334 10.5 152.001 31.5
s81.5 46.5 104.5 76.5s37.833 58.5 44.5 85.5s10 72.5 10 136.5v88c-30 -38 -77 -74 -141 -108s-134 -51 -210 -51c-138.667 0 -251.667 48 -339 144s-131 214 -131 354c0 153.333 48.167 277.166 144.5 371.499s207.833 141.5 334.5 141.5c128 0 242 -51 342 -153v138h364z
M274 474.001c0 -98 28.5 -177.999 85.5 -239.999s129.833 -93 218.5 -93c86.667 0 161.334 31.167 224.001 93.5s94 142.5 94 240.5c0 99.333 -31.333 179.166 -94 239.499s-135.334 90.5 -218.001 90.5s-155 -29.833 -217 -89.5s-93 -140.167 -93 -241.5z" />
    <glyph glyph-name="h" unicode="h" 
d="M217 169l-0.000976562 1053h-175v169h365v-534c114 92 222.333 138 325 138c64 0 116.667 -13.333 158 -40s69.5 -61.834 84.5 -105.501s22.5 -107.5 22.5 -191.5v-489h165v-169h-355v592c0 73.333 -2.33301 122.333 -7 147s-17.5 45 -38.5 61s-45.833 24 -74.5 24
c-73.333 0 -166.666 -41.667 -279.999 -125v-530h168v-169h-533v169h175z" />
    <glyph glyph-name="i" unicode="i" horiz-adv-x="598" 
d="M190 1297c0 30.667 10.833 57.333 32.5 80s49.167 34 82.5 34c31.333 0 58.333 -11 81 -33s34 -49 34 -81s-11.333 -59.167 -34 -81.5s-49.667 -33.5 -81 -33.5c-32 0 -59.167 11.333 -81.5 34s-33.5 49.667 -33.5 81zM217 168.999v630h-151v169h341v-799h149v-169h-490
v169h151z" />
    <glyph glyph-name="j" unicode="j" horiz-adv-x="598" 
d="M202 1297c0 31.333 11.333 58.167 34 80.5s49.667 33.5 81 33.5c32 0 59.167 -11 81.5 -33s33.5 -49 33.5 -81s-11.333 -59.167 -34 -81.5s-49.667 -33.5 -81 -33.5c-32.667 0 -60 11.5 -82 34.5s-33 49.833 -33 80.5zM-38 -415.999v172.001c32 -4 62.667 -6 92 -6
c50 0 87.5 7.66699 112.5 23s41.667 37.666 50 66.999s12.5 120.333 12.5 273v686h-152v169h342v-824c0 -166 -5.33301 -281.667 -16 -347s-42.334 -118.833 -95.001 -160.5s-130.667 -62.5 -234 -62.5c-39.333 0 -76.666 3.33301 -111.999 10z" />
    <glyph glyph-name="k" unicode="k" 
d="M224 169v1053h-174v169h364v-869l362 289h-161v157h535v-157h-148l-363 -302l341 -340h170v-169h-249l-487 487v-318h167v-169h-531v169h174z" />
    <glyph glyph-name="l" unicode="l" horiz-adv-x="598" 
d="M213 169v1053h-172v169h362v-1222h148v-169h-510v169h172z" />
    <glyph glyph-name="m" unicode="m" horiz-adv-x="1772" 
d="M227 169l-0.000976562 630.001h-161v169h351v-122c114.667 91.333 227 137 337 137c110.667 0 187 -50.333 229 -151c126 100.667 243.333 151 352 151c62.667 0 114.167 -13.833 154.5 -41.5s67.5 -62.667 81.5 -105s21 -104.833 21 -187.5v-480h169v-169h-359v615
c0 56 -2.5 95.5 -7.5 118.5s-17.667 42 -38 57s-44.833 22.5 -73.5 22.5c-81.333 0 -173.666 -41.667 -276.999 -125v-519h166v-169h-356v633c0 63.333 -9.16699 109.166 -27.5 137.499s-49.5 42.5 -93.5 42.5c-72 0 -164.667 -41.667 -278 -125v-519h170v-169h-533v169h173
z" />
    <glyph glyph-name="n" unicode="n" 
d="M415 968v-116.999c122 88 233.333 132 334 132c62.667 0 114.5 -14.833 155.5 -44.5s67.833 -66 80.5 -109s19 -105.833 19 -188.5v-472h163v-169h-353v633c0 73.333 -11 121.166 -33 143.499s-49 33.5 -81 33.5c-84 0 -179 -41 -285 -123v-518h167v-169h-527v169h170
v630h-170v169h360z" />
    <glyph glyph-name="o" unicode="o" 
d="M78 484c0 149.333 49.333 271.833 148 367.5s219 143.5 361 143.5c139.333 0 259 -47.167 359 -141.5s150 -217.5 150 -369.5s-49.833 -275.333 -149.5 -370s-219.5 -142 -359.5 -142c-144 0 -264.833 48 -362.5 144s-146.5 218.667 -146.5 368zM279 484
c0 -95.333 29.833 -173.5 89.5 -234.5s132.5 -91.5 218.5 -91.5c87.333 0 160.5 30.833 219.5 92.5s88.5 139.5 88.5 233.5c0 94.667 -30 172.667 -90 234s-132.667 92 -218 92c-89.333 0 -163 -31.333 -221 -94s-87 -140 -87 -232z" />
    <glyph glyph-name="p" unicode="p" horiz-adv-x="1280" 
d="M191 -265l-0.000976562 1064h-163v169h353v-152c94.667 111.333 209.334 167 344.001 167c136 0 248.5 -46.667 337.5 -140s133.5 -214.666 133.5 -363.999c0 -156.667 -48.333 -280.334 -145 -371.001s-206.667 -136 -330 -136c-128 0 -241.333 49.333 -340 148v-385
h188v-169h-555v169h177zM377.999 470c0 -53.333 11.001 -104.333 33.001 -153s57 -89.5 105 -122.5s104.333 -49.5 169 -49.5c90.667 0 165.5 30.333 224.5 91s88.5 144 88.5 250c0 103.333 -30.833 184 -92.5 242s-131.834 87 -210.501 87
c-84 0 -157.833 -31.5 -221.5 -94.5s-95.5 -146.5 -95.5 -250.5z" />
    <glyph glyph-name="q" unicode="q" horiz-adv-x="1260" 
d="M1079 -265h176.999v-169h-555v169h188v387c-96 -100 -210.333 -150 -343 -150c-120.667 0 -229.5 45 -326.5 135s-145.5 214.667 -145.5 374c0 150.667 45 272 135 364s202 138 336 138c134.667 0 249.334 -55.667 344.001 -167v152h353v-169h-163v-1064zM891.999 470
c0 104 -31.833 187.5 -95.5 250.5s-137.5 94.5 -221.5 94.5c-81.333 0 -152.166 -29.667 -212.499 -89s-90.5 -140.333 -90.5 -243c0 -94 27.167 -173.833 81.5 -239.5s130.833 -98.5 229.5 -98.5c99.333 0 175.666 33.333 228.999 100s80 141.667 80 225z" />
    <glyph glyph-name="r" unicode="r" horiz-adv-x="854" 
d="M240 169l0.00195312 630h-195v169h347v-218c21.333 56.667 51 103.667 89 141s78.167 62 120.5 74s100.166 18 173.499 18h50v-192h-38c-96.667 0 -168.834 -9.66699 -216.501 -29s-83 -54.5 -106 -105.5s-34.5 -142.5 -34.5 -274.5v-213h211v-169h-596v169h195z" />
    <glyph glyph-name="s" unicode="s" horiz-adv-x="938" 
d="M84 0l-0.000976562 332.003h170v-32c6 -45.333 30.5 -82.666 73.5 -111.999s93.833 -44 152.5 -44c61.333 0 110.333 10.667 147 32s55 51 55 89c0 36.667 -15.167 63.667 -45.5 81s-90.5 33.333 -180.5 48c-133.333 22.667 -228.5 59.167 -285.5 109.5
s-85.5 115.5 -85.5 195.5c0 80.667 31 148.167 93 202.5s143.667 81.5 245 81.5c91.333 0 170 -18.667 236 -56v41h169v-321h-169v59c-51.333 79.333 -126 119 -224 119c-50 0 -91.167 -10.833 -123.5 -32.5s-48.5 -50.5 -48.5 -86.5c0 -36.667 14.833 -61.834 44.5 -75.501
s93.5 -28.167 191.5 -43.5c94 -14.667 165 -31.834 213 -51.501s87.833 -52.334 119.5 -98.001s47.5 -98.834 47.5 -159.501c0 -90 -34.5 -161.5 -103.5 -214.5s-158.5 -79.5 -268.5 -79.5c-103.333 0 -187.666 23.333 -252.999 70v-54h-170z" />
    <glyph glyph-name="t" unicode="t" horiz-adv-x="618" 
d="M62 799l0.00195312 168.998h126v149l190 174v-323h179v-169h-179v-470c0 -75.333 4.16699 -121.833 12.5 -139.5s29.166 -26.5 62.499 -26.5c35.333 0 70 6.66699 104 20v-173c-48.667 -17.333 -97.334 -26 -146.001 -26c-58 0 -105 12.833 -141 38.5
s-58.667 57.834 -68 96.501s-14 105.334 -14 200.001v480h-126z" />
    <glyph glyph-name="u" unicode="u" horiz-adv-x="1153" 
d="M1133 169l0.000976562 -169h-357v111c-111.333 -84.667 -218 -127 -320 -127c-64.667 0 -118.167 14.167 -160.5 42.5s-70.5 65 -84.5 110s-21 117.5 -21 217.5v445h-137v169h327v-590c0 -71.333 2 -119.333 6 -144s15.667 -45 35 -61s43.666 -24 72.999 -24
c88 0 182 42 282 126v524h-171v169h361v-799h167z" />
    <glyph glyph-name="v" unicode="v" horiz-adv-x="1110" 
d="M483 -16l-316 815h-171v169h487v-169h-126l208 -549l209 549h-134v169h473v-169h-149l-309 -815h-172z" />
    <glyph glyph-name="w" unicode="w" horiz-adv-x="1579" 
d="M374 -16l-259 815h-118v169h408v-169h-127l185 -584l185 584h-106v169h468v-169h-106l185 -584l186 584h-133v169h437v-169h-139l-260 -815h-179l-222 700l-226 -700h-179z" />
    <glyph glyph-name="x" unicode="x" horiz-adv-x="1130" 
d="M569 385l-188 -216h124v-169h-469v169h143l291 329l-278 301h-131v169h455v-169h-121l174 -187l168 187h-99v169h457v-169h-159l-265 -301l302 -329h122v-169h-457v169h134z" />
    <glyph glyph-name="y" unicode="y" horiz-adv-x="1153" 
d="M496 17l-318 782h-161v169h479v-169h-116l209 -536l205 536h-128v169h469v-169h-144l-479 -1233h-321v166h189z" />
    <glyph glyph-name="z" unicode="z" horiz-adv-x="918" 
d="M33 0v158l607 653h-398v-186h-162v343h786v-169l-609 -641h443v198h166v-356h-833z" />
    <glyph glyph-name="braceleft" unicode="{" horiz-adv-x="682" 
d="M58 556c48 1.33301 87.998 13.3311 119.998 35.998s54.5 55.667 67.5 99s19.5 121 19.5 233c0 143.333 8 243 24 299s46.667 98 92 126s112 42 200 42h56v-149h-31c-66.667 0 -112 -11.167 -136 -33.5s-36 -75.5 -36 -159.5c0 -148 -3.33301 -251.667 -10 -311
s-25 -110 -55 -152s-78 -78 -144 -108c70 -26.667 122.333 -69.834 157 -129.501s52 -157.5 52 -293.5c0 -125.333 1.83301 -204.666 5.5 -237.999s16.334 -58.666 38.001 -75.999s64.5 -26 128.5 -26h31v-149h-56c-65.333 0 -116.666 6.33301 -153.999 19
s-69.833 36.5 -97.5 71.5s-45.334 78.333 -53.001 130s-11.5 133.834 -11.5 246.501c0 112 -6.5 189.667 -19.5 233s-35.667 76.333 -68 99s-72.166 34.667 -119.499 36v155z" />
    <glyph glyph-name="bar" unicode="|" horiz-adv-x="1079" 
d="M461 1419h157v-1875h-157v1875z" />
    <glyph glyph-name="braceright" unicode="}" horiz-adv-x="682" 
d="M624 401c-48 -1.33301 -88.001 -13.332 -120.001 -35.999s-54.5 -55.834 -67.5 -99.501s-19.5 -121.167 -19.5 -232.5c0 -143.333 -8 -243.166 -24 -299.499s-46.667 -98.333 -92 -126s-112 -41.5 -200 -41.5h-56v148h31c66.667 0 112 11.167 136 33.5s36 75.5 36 159.5
c0 148.667 3.33301 252.667 10 312s25 109.833 55 151.5s78 77.5 144 107.5c-70 26.667 -122.333 70 -157 130s-52 157.667 -52 293c0 125.333 -2 204.833 -6 238.5s-16.833 59.167 -38.5 76.5s-64.167 26 -127.5 26h-31v149h56c65.333 0 116.666 -6.33301 153.999 -19
s69.833 -36.5 97.5 -71.5s45.334 -78.333 53.001 -130s11.5 -133.834 11.5 -246.501c0 -112 6.33301 -189.667 19 -233s35.334 -76.5 68.001 -99.5s72.667 -34.833 120 -35.5v-155z" />
    <glyph glyph-name="asciitilde" unicode="~" horiz-adv-x="1194" 
d="M1145 666c-103.333 -85.333 -201 -128 -293 -128c-40.667 0 -80.334 6 -119.001 18s-103 39 -193 81c-84.667 39.333 -149 59 -193 59c-90 0 -189.333 -46.667 -298 -140v169c104.667 85.333 206.334 128 305.001 128c62 0 159.667 -31.333 293 -94
c90.667 -42 158.667 -63 204 -63c88.667 0 186.667 46.333 294 139v-169z" />
    <glyph glyph-name="nonbreakingspace" unicode="&#xa0;" horiz-adv-x="512" 
 />
    <glyph glyph-name="exclamdown" unicode="&#xa1;" horiz-adv-x="598" 
d="M176 977h246v-245h-246v245zM349 604l50 -596v-418h-202v418l50 596h102z" />
    <glyph glyph-name="cent" unicode="&#xa2;" horiz-adv-x="1067" 
d="M347 23c-83.333 45.333 -148.332 110.499 -194.999 195.499s-70 175.833 -70 272.5c0 142.667 47.5 262.334 142.5 359.001s204.5 145 328.5 145c46.667 0 91 -7.33301 133 -22l157 448h89l-169 -474c24.667 -13.333 47 -29 67 -47v73h170v-371h-157
c-14.667 85.333 -60.334 147.333 -137.001 186l-223 -627c29.333 -10.667 62 -16 98 -16c135.333 0 233 63.333 293 190l157 -74c-86.667 -192.667 -239 -289 -457 -289c-54.667 0 -105 6.66699 -151 20l-155 -434h-87zM410.001 201.999l218.001 611.999
c-18.667 3.33301 -36.334 5 -53.001 5c-86 0 -155.333 -30.333 -208 -91s-79 -139.667 -79 -237c0 -125.333 40.667 -221.666 122 -288.999z" />
    <glyph glyph-name="sterling" unicode="&#xa3;" horiz-adv-x="1110" 
d="M572 597c8.66699 -46 12.999 -90.6699 12.999 -134.003c0 -65.333 -10.333 -133 -31 -203c108 -54.667 182.333 -82 223 -82c104.667 0 162.334 58.333 173.001 175h121c-3.33301 -133.333 -32.833 -229.166 -88.5 -287.499s-125.5 -87.5 -209.5 -87.5
s-181.333 40.667 -292 122c-63.333 -81.333 -136.333 -122 -219 -122c-52 0 -97.333 16.333 -136 49s-58 77.334 -58 134.001c0 60.667 20.833 108.667 62.5 144s89.167 53 142.5 53c43.333 0 92.333 -12 147 -36c1.33301 18.667 2 32.667 2 42
c0 64 -16.667 141.667 -50 233h-305v161h244c-52.667 132.667 -79 242 -79 328c0 108.667 36.5 190.334 109.5 245.001s159.167 82 258.5 82c105.333 0 194.5 -29 267.5 -87s109.5 -148 109.5 -270c0 -8 -0.333008 -19.667 -1 -35h-191l2 54c0 42.667 -13.5 83 -40.5 121
s-72.833 57 -137.5 57c-121.333 0 -182 -53.667 -182 -161c0 -54.667 32.333 -166 97 -334h249v-161h-201zM381.999 174.997c-56 42 -101.666 63 -136.999 63c-20.667 0 -38.834 -6.83301 -54.501 -20.5s-23.5 -32.167 -23.5 -55.5c0 -50.667 27.667 -76 83 -76
c48.667 0 92.667 29.667 132 89z" />
    <glyph glyph-name="currency" unicode="&#xa4;" horiz-adv-x="1366" 
d="M183 1089l104 106.999l132 -131c76 58 163.333 87 262 87c95.333 0 184 -29 266 -87l131 131l104 -107l-130 -130c57.333 -83.333 86 -172.666 86 -267.999c0 -94.667 -28.667 -181 -86 -259l130 -129l-104 -105l-131 129c-83.333 -58.667 -173 -88 -269 -88
c-94.667 0 -181 29.333 -259 88l-130 -129l-106 105l131 129c-57.333 88 -86 178 -86 270c0 91.333 28.667 177 86 257zM683 1002c-84 0 -156.167 -29.833 -216.5 -89.5s-90.5 -132.167 -90.5 -217.5c0 -84.667 30 -157 90 -217s132.333 -90 217 -90
s157.167 30.167 217.5 90.5s90.5 132.5 90.5 216.5c0 85.333 -30.167 157.833 -90.5 217.5s-132.833 89.5 -217.5 89.5z" />
    <glyph glyph-name="yen" unicode="&#xa5;" horiz-adv-x="1323" 
d="M875 788h371v-117h-448l-25 -38v-171h473v-117h-473v-171h190v-174h-587v174h187v171h-487v117h487v171l-26 38h-461v117h378l-305 429h-170v174h572v-174h-175l307 -429l280 429h-175v174h555v-174h-184z" />
    <glyph glyph-name="brokenbar" unicode="&#xa6;" horiz-adv-x="1079" 
d="M461 1419h157v-779h-157v779zM461 322h157v-778h-157v778z" />
    <glyph glyph-name="section" unicode="&#xa7;" horiz-adv-x="981" 
d="M871 1050l-188 -0.000976562c-4 72 -27.667 123.167 -71 153.5s-93 45.5 -149 45.5c-50 0 -93.5 -13 -130.5 -39s-55.5 -62 -55.5 -108s19.833 -83.667 59.5 -113s113.167 -63.333 220.5 -102c134.667 -48 230.667 -96.5 288 -145.5s86 -114.833 86 -197.5
c0 -119.333 -65.667 -217 -197 -293c110.667 -63.333 166 -152.666 166 -267.999c0 -93.333 -34.667 -173.5 -104 -240.5s-165 -100.5 -287 -100.5c-109.333 0 -201 29.167 -275 87.5s-113 153.166 -117 284.499h186c2 -65.333 22.333 -115 61 -149s88.334 -51 149.001 -51
c63.333 0 111.833 14.5 145.5 43.5s50.5 63.833 50.5 104.5s-19.5 76 -58.5 106s-115.833 65.333 -230.5 106c-94 33.333 -164.333 63 -211 89s-84.834 61.833 -114.501 107.5s-44.5 94.5 -44.5 146.5c0 116 67.667 211.667 203 287c-110.667 64.667 -166 156 -166 274
c0 100 36.5 180.833 109.5 242.5s165.167 92.5 276.5 92.5c128.667 0 227.167 -32.167 295.5 -96.5s102.5 -147.166 102.5 -248.499v-18zM370 743.999c-93.333 -50.667 -139.999 -109.332 -139.999 -175.999c0 -36.667 13.167 -68.334 39.5 -95.001
s139.833 -79.667 340.5 -159c98 47.333 147 108 147 182c0 40 -16.833 72.667 -50.5 98s-101.834 57.333 -204.501 96c-48.667 18.667 -92.667 36.667 -132 54z" />
    <glyph glyph-name="dieresis" unicode="&#xa8;" horiz-adv-x="682" 
d="M49 1255c0 30 10.832 55.999 32.499 77.999s47.834 33 78.501 33s56.834 -10.833 78.501 -32.5s32.5 -47.834 32.5 -78.501c0 -31.333 -10.833 -57.666 -32.5 -78.999s-47.834 -32 -78.501 -32c-30 0 -56 10.833 -78 32.5s-33 47.834 -33 78.501zM410.999 1255
c0 29.333 10.499 55.167 31.499 77.5s47.5 33.5 79.5 33.5c30.667 0 56.834 -11 78.501 -33s32.5 -48 32.5 -78c0 -30.667 -10.833 -56.834 -32.5 -78.501s-47.834 -32.5 -78.501 -32.5c-31.333 0 -57.666 10.833 -78.999 32.5s-32 47.834 -32 78.501z" />
    <glyph glyph-name="copyright" unicode="&#xa9;" horiz-adv-x="1516" 
d="M758 1413c126.667 0 249.5 -32.168 368.5 -96.501s213 -156.666 282 -276.999s103.5 -247.5 103.5 -381.5c0 -208 -73.5 -385.833 -220.5 -533.5s-324.833 -221.5 -533.5 -221.5s-386.667 73.833 -534 221.5s-221 325.5 -221 533.5c0 135.333 34.333 262.333 103 381
s162 210.667 280 276s242 98 372 98zM758 1287c-105.333 0 -207.667 -26.833 -307 -80.5s-178 -130.5 -236 -230.5s-87 -206 -87 -318c0 -173.333 61.5 -321.5 184.5 -444.5s271.5 -184.5 445.5 -184.5s322.333 61.5 445 184.5s184 271.167 184 444.5
c0 174 -61.667 322.333 -185 445s-271.333 184 -444 184zM999.999 534.999l123 -36c-18.667 -82.667 -61.167 -148.834 -127.5 -198.501s-144.5 -74.5 -234.5 -74.5c-84 0 -156.5 19 -217.5 57s-106.333 89.333 -136 154s-44.5 137.667 -44.5 219
c0 130.667 35.833 234.167 107.5 310.5s170.5 114.5 296.5 114.5c88.667 0 162.834 -21.5 222.501 -64.5s99.167 -100.167 118.5 -171.5l-119 -29c-40.667 102.667 -116 154 -226 154c-84.667 0 -149.834 -30 -195.501 -90s-68.5 -135.667 -68.5 -227
c0 -98 23 -174.167 69 -228.5s107.333 -81.5 184 -81.5c56.667 0 108.667 16.833 156 50.5s78 80.834 92 141.501z" />
    <glyph glyph-name="ordfeminine" unicode="&#xaa;" horiz-adv-x="705" 
d="M676 917l0.00292969 -101.001h-215v70c-59.333 -53.333 -126 -80 -200 -80c-54.667 0 -103.834 16.667 -147.501 50s-65.5 78 -65.5 134c0 56.667 23.167 102.167 69.5 136.5s100.166 51.5 161.499 51.5c57.333 0 113.666 -16.667 168.999 -50v58
c0 42.667 -10.167 75.167 -30.5 97.5s-56.166 33.5 -107.499 33.5c-62 0 -107 -23 -135 -69l-119 29c52.667 90.667 142.667 136 270 136c62 0 112.167 -9.33301 150.5 -28s63.666 -42.167 75.999 -70.5s18.5 -71.166 18.5 -128.499v-269h105zM448.003 1032
c-52.667 38 -105.668 57.001 -159.001 57.001c-37.333 0 -67.166 -9.5 -89.499 -28.5s-33.5 -42.5 -33.5 -70.5c0 -24.667 9.5 -46.834 28.5 -66.501s47.5 -29.5 85.5 -29.5c58.667 0 114.667 23 168 69v69z" />
    <glyph glyph-name="guillemotleft" unicode="&#xab;" horiz-adv-x="981" 
d="M33 484l297 484h200l-292 -484l292 -484h-200zM461 484l297 484h200l-292 -484l292 -484h-200z" />
    <glyph glyph-name="logicalnot" unicode="&#xac;" horiz-adv-x="1366" 
d="M135 1009h1096v-627h-157v470h-939v157z" />
    <glyph glyph-name="registered" unicode="&#xae;" horiz-adv-x="1516" 
d="M758 1413c126.667 0 249.5 -32.168 368.5 -96.501s213 -156.666 282 -276.999s103.5 -247.5 103.5 -381.5c0 -208 -73.5 -385.833 -220.5 -533.5s-324.833 -221.5 -533.5 -221.5s-386.667 73.833 -534 221.5s-221 325.5 -221 533.5c0 135.333 34.333 262.333 103 381
s162 210.667 280 276s242 98 372 98zM758 1287c-105.333 0 -207.667 -26.833 -307 -80.5s-178 -130.5 -236 -230.5s-87 -206 -87 -318c0 -173.333 61.5 -321.5 184.5 -444.5s271.5 -184.5 445.5 -184.5s322.333 61.5 445 184.5s184 271.167 184 444.5
c0 174 -61.667 322.333 -185 445s-271.333 184 -444 184zM426.999 240.999l0.000976562 811h279c80.667 0 143 -5.33301 187 -16s81.667 -35 113 -73s47 -81.667 47 -131c0 -57.333 -21 -108.5 -63 -153.5s-98.333 -70.167 -169 -75.5c50 -14 113 -82 189 -204l99 -158h-160
l-72 128c-54.667 96 -96.334 156 -125.001 180s-67.667 36 -117 36h-77v-344h-131zM558 696.999h158.999c131.333 0 197 41.333 197 124c0 44 -15.667 75.167 -47 93.5s-84.666 27.5 -159.999 27.5h-149v-245z" />
    <glyph glyph-name="macron" unicode="&#xaf;" horiz-adv-x="1024" 
d="M-12 1647h1048v-102h-1048v102z" />
    <glyph glyph-name="degree" unicode="&#xb0;" horiz-adv-x="811" 
d="M406 1413c94.667 0 176 -33.833 244 -101.5s102 -149.167 102 -244.5c0 -94.667 -33.833 -176 -101.5 -244s-149.167 -102 -244.5 -102c-96 0 -177.667 33.833 -245 101.5s-101 149.167 -101 244.5s33.833 176.833 101.5 244.5s149.167 101.5 244.5 101.5zM406 1283
c-58.667 0 -109.167 -21 -151.5 -63s-63.5 -92.667 -63.5 -152s21 -110 63 -152s92.667 -63 152 -63s110 21.167 152 63.5s63 92.833 63 151.5c0 60.667 -21.333 111.667 -64 153s-93 62 -151 62z" />
    <glyph glyph-name="plusminus" unicode="&#xb1;" horiz-adv-x="1366" 
d="M135 943h470v470h156v-470h470v-157h-470v-469h-156v469h-470v157zM135 135h1096v-157h-1096v157z" />
    <glyph glyph-name="twosuperior" unicode="&#xb2;" horiz-adv-x="682" 
d="M606 946l-7.99805 -267h-549c0 78 20.667 145.167 62 201.5s118 119.833 230 190.5c50 31.333 81.667 56.5 95 75.5s20 40.167 20 63.5c0 70.667 -41.667 106 -125 106c-46.667 0 -79.834 -11.5 -99.501 -34.5s-29.5 -61.167 -29.5 -114.5c0 -12.667 0.666992 -27 2 -43
h-134v36c0 168.667 88.333 253 265 253c80.667 0 144.5 -18.667 191.5 -56s70.5 -85 70.5 -143c0 -46 -14.833 -85.333 -44.5 -118s-86.834 -75 -171.501 -127c-112.667 -68.667 -175 -130 -187 -184h285v161h127z" />
    <glyph glyph-name="threesuperior" unicode="&#xb3;" horiz-adv-x="682" 
d="M248 1005l0.000976562 101.001c86.667 0 143 7.16699 169 21.5s39 41.166 39 80.499c0 29.333 -9.33301 54.833 -28 76.5s-47.667 32.5 -87 32.5c-82.667 0 -124.334 -47.667 -125.001 -143h-138c0 159.333 86.333 239 259 239c82.667 0 145.834 -18.833 189.501 -56.5
s65.5 -84.5 65.5 -140.5c0 -66 -32 -118.667 -96 -158c89.333 -31.333 134 -88.333 134 -171c0 -66 -27.5 -119 -82.5 -159s-127.167 -60 -216.5 -60c-193.333 0 -290 88.333 -290 265h132c4 -112 60.333 -168 169 -168c46 0 82 10.833 108 32.5s39 50.5 39 86.5
c0 81.333 -66.667 122 -200 122c-8.66699 0 -22.334 -0.333008 -41.001 -1z" />
    <glyph glyph-name="acute" unicode="&#xb4;" horiz-adv-x="682" 
d="M156 1096l141 317h276l-289 -317h-128z" />
    <glyph glyph-name="mu" unicode="&#xb5;" horiz-adv-x="1130" 
d="M993 968l-0.00390625 -968h-161v126c-59.333 -100.667 -149 -151 -269 -151c-103.333 0 -186.666 44 -249.999 132v-541h-178v1402h178v-356c0 -127.333 4.83301 -219 14.5 -275s35.334 -103.167 77.001 -141.5s92.834 -57.5 153.501 -57.5s113.334 18.333 158.001 55
s72.5 81.667 83.5 135s16.5 147 16.5 281v359h177z" />
    <glyph glyph-name="paragraph" unicode="&#xb6;" horiz-adv-x="1110" 
d="M404 -434v997c-123.333 5.33301 -221.5 45.5 -294.5 120.5s-109.5 171.5 -109.5 289.5c-0 118.667 38.333 218 115 298s196 120 358 120h633v-173h-144v-1652h-167v1652h-223v-1652h-168z" />
    <glyph glyph-name="cedilla" unicode="&#xb8;" horiz-adv-x="682" 
d="M422 21l-21.001 -118.001c94.667 -23.333 142 -77.666 142 -162.999c0 -64.667 -26.667 -113.667 -80 -147s-127.333 -50 -222 -50h-72v111c70.667 0 118.834 6 144.501 18s38.5 31.333 38.5 58c0 38.667 -32 58 -96 58l41 233h125z" />
    <glyph glyph-name="onesuperior" unicode="&#xb9;" horiz-adv-x="682" 
d="M267 778v524h-112v98h249v-622h106v-99h-355v99h112z" />
    <glyph glyph-name="ordmasculine" unicode="&#xba;" horiz-adv-x="768" 
d="M53 1106c0 91.333 32.333 165.333 97 222s142.667 85 234 85s169.333 -28.5 234 -85.5s97 -130.833 97 -221.5c0 -91.333 -32.333 -165.333 -97 -222s-142.667 -85 -234 -85c-92 0 -170.167 28.667 -234.5 86s-96.5 131 -96.5 221zM184 1106
c0 -57.333 19.5 -104.333 58.5 -141s86.167 -55 141.5 -55s102.5 18.5 141.5 55.5s58.5 83.833 58.5 140.5c0 58.667 -19.833 105.834 -59.5 141.501s-86.5 53.5 -140.5 53.5c-54.667 0 -101.667 -17.833 -141 -53.5s-59 -82.834 -59 -141.501z" />
    <glyph glyph-name="guillemotright" unicode="&#xbb;" horiz-adv-x="981" 
d="M520 484l-297 -484h-200l293 484l-293 484h200zM948 484l-297 -484h-200l293 484l-293 484h200z" />
    <glyph glyph-name="onequarter" unicode="&#xbc;" horiz-adv-x="1985" 
d="M267 778v524h-112v98h249v-622h106v-99h-355v99h112zM250 0l1103 1389h121l-1101 -1389h-123zM1291 190h-275.001c-9.33301 36 -27.666 65 -54.999 87l347 451h115v-438h131v-100h-131v-91h75v-99h-295v99h88v91zM1291 290v241l-186 -241h186z" />
    <glyph glyph-name="onehalf" unicode="&#xbd;" horiz-adv-x="1985" 
d="M252 778v524h-112v98h249v-622h106v-99h-355v99h112zM199 0l1103 1389h121l-1101 -1389h-123zM1581 266l-7.99902 -266.001h-548c0 78 20.667 145.167 62 201.5s118 119.833 230 190.5c48.667 30.667 80 55.5 94 74.5s21 40.5 21 64.5c0 70.667 -42 106 -126 106
c-48.667 0 -82.167 -12.5 -100.5 -37.5s-27.5 -61.833 -27.5 -110.5c0 -11.333 0.666992 -26 2 -44h-134c-0.666992 14.667 -1 27.334 -1 38.001c0 87.333 24.833 150.833 74.5 190.5s113.5 59.5 191.5 59.5c80.667 0 144.5 -18.667 191.5 -56s70.5 -84.666 70.5 -141.999
c0 -46 -14.833 -85.333 -44.5 -118s-86.834 -75 -171.501 -127c-112.667 -68.667 -175 -130.334 -187 -185.001h285v161h126z" />
    <glyph glyph-name="threequarters" unicode="&#xbe;" horiz-adv-x="1985" 
d="M332 1005l0.000976562 101.001c86.667 0 143 7.16699 169 21.5s39 41.166 39 80.499c0 29.333 -9.33301 54.833 -28 76.5s-47.667 32.5 -87 32.5c-82.667 0 -124.334 -47.667 -125.001 -143h-138c0 159.333 86.333 239 259 239c82.667 0 145.834 -18.833 189.501 -56.5
s65.5 -84.5 65.5 -140.5c0 -66 -32 -118.667 -96 -158c89.333 -31.333 134 -88.333 134 -171c0 -66 -27.5 -119 -82.5 -159s-127.167 -60 -216.5 -60c-193.333 0 -290 88.333 -290 265h132c4 -112 60.333 -168 169 -168c46 0 82 10.833 108 32.5s39 50.5 39 86.5
c0 81.333 -66.667 122 -200 122c-8.66699 0 -22.334 -0.333008 -41.001 -1zM332.001 0.000976562l1103 1389h121l-1104 -1389h-120zM1445 190.001h-275.001c-9.33301 36 -27.666 65 -54.999 87l347 451h115v-438h131v-100h-131v-91h75v-99h-295v99h88v91zM1445 290.001v241
l-186 -241h186z" />
    <glyph glyph-name="questiondown" unicode="&#xbf;" horiz-adv-x="961" 
d="M664 977v-245h-246v245h246zM489 602h103.002l24 -442c-31.333 8 -63 12 -95 12c-86.667 0 -149.334 -22 -188.001 -66s-58 -96 -58 -156c0 -72 20.667 -127.333 62 -166s94.333 -58 159 -58c78.667 0 136.667 22.667 174 68s56 102 56 170
c0 14.667 -0.333008 31.334 -1 50.001h187c0.666992 -18.667 1 -34.667 1 -48c0 -136.667 -40.5 -237.834 -121.5 -303.501s-177.5 -98.5 -289.5 -98.5c-136 0 -240.667 36 -314 108s-110 167.333 -110 286c0 114 35.167 205 105.5 273s153.166 102 248.499 102
c7.33301 0 18 -0.333008 32 -1z" />
    <glyph glyph-name="Agrave" unicode="&#xc0;" horiz-adv-x="1430" 
d="M970 489h-500l-107 -315h169v-174h-548v174h168l380 1060h-169v157h711v-157h-173l389 -1060h156v-174h-545v174h173zM918 652l-185 582h-19l-192 -582h396zM851 1473h-128l-289 317h276z" />
    <glyph glyph-name="Aacute" unicode="&#xc1;" horiz-adv-x="1430" 
d="M970 489h-500l-107 -315h169v-174h-548v174h168l380 1060h-169v157h711v-157h-173l389 -1060h156v-174h-545v174h173zM918 652l-185 582h-19l-192 -582h396zM579 1473l141 317h276l-289 -317h-128z" />
    <glyph glyph-name="Acircumflex" unicode="&#xc2;" horiz-adv-x="1430" 
d="M970 489h-500l-107 -315h169v-174h-548v174h168l380 1060h-169v157h711v-157h-173l389 -1060h156v-174h-545v174h173zM918 652l-185 582h-19l-192 -582h396zM715 1650l-165 -174h-135l168 312h267l173 -312h-141z" />
    <glyph glyph-name="Atilde" unicode="&#xc3;" horiz-adv-x="1430" 
d="M970 489h-500l-107 -315h169v-174h-548v174h168l380 1060h-169v157h711v-157h-173l389 -1060h156v-174h-545v174h173zM918 652l-185 582h-19l-192 -582h396zM939 1768h111.999c-2.66699 -102.667 -22.167 -174.667 -58.5 -216s-77.833 -62 -124.5 -62
c-47.333 0 -107.666 22.333 -180.999 67c-64.667 38.667 -107 58 -127 58c-20.667 0 -35.334 -8.16699 -44.001 -24.5s-13 -44.833 -13 -85.5h-115c0.666992 96 18.667 164.667 54 206s78 62 128 62c40 0 101.333 -24 184 -72c57.333 -34 95.333 -51 114 -51
c44.667 0 68.334 39.333 71.001 118z" />
    <glyph glyph-name="Adieresis" unicode="&#xc4;" horiz-adv-x="1430" 
d="M970 489h-500l-107 -315h169v-174h-548v174h168l380 1060h-169v157h711v-157h-173l389 -1060h156v-174h-545v174h173zM918 652l-185 582h-19l-192 -582h396zM427 1617c0 30 10.832 55.999 32.499 77.999s47.834 33 78.501 33s56.834 -10.833 78.501 -32.5
s32.5 -47.834 32.5 -78.501c0 -31.333 -10.833 -57.666 -32.5 -78.999s-47.834 -32 -78.501 -32c-30 0 -56 10.833 -78 32.5s-33 47.834 -33 78.501zM788.999 1617c0 29.333 10.499 55.167 31.499 77.5s47.5 33.5 79.5 33.5c30.667 0 56.834 -11 78.501 -33
s32.5 -48 32.5 -78c0 -30.667 -10.833 -56.834 -32.5 -78.501s-47.834 -32.5 -78.501 -32.5c-31.333 0 -57.666 10.833 -78.999 32.5s-32 47.834 -32 78.501z" />
    <glyph glyph-name="Aring" unicode="&#xc5;" horiz-adv-x="1430" 
d="M634 1391c-90.667 38.667 -136 106 -136 202c0 59.333 21.167 110.333 63.5 153s93.5 64 153.5 64c60.667 0 112 -21.333 154 -64s63 -93.667 63 -153c0 -96 -45.333 -163.333 -136 -202h278v-157h-173l389 -1060h156v-174h-545v174h173l-104 315h-500l-107 -315h169
v-174h-548v174h168l380 1060h-169v157h271zM594 1592c0 -32 11.667 -60.001 35 -84.001s52 -36 86 -36c33.333 0 61.833 11.833 85.5 35.5s35.5 51.834 35.5 84.501c0 33.333 -11.667 61.833 -35 85.5s-52 35.5 -86 35.5c-33.333 0 -61.833 -11.833 -85.5 -35.5
s-35.5 -52.167 -35.5 -85.5zM918 651.999l-185 582h-19l-192 -582h396z" />
    <glyph glyph-name="AE" unicode="&#xc6;" horiz-adv-x="1921" 
d="M853 634h-393l-239 -460h151v-174h-493v174h134l538 1043h-220v174h1506v-419h-172v245h-602v-409h522v-174h-522v-460h602v254h172v-428h-1207v174h223v460zM853 808v409h-91l-215 -409h306z" />
    <glyph glyph-name="Ccedilla" unicode="&#xc7;" horiz-adv-x="1556" 
d="M729 -19c-200 14 -357.002 88.6689 -471.002 224.002s-171 297.333 -171 486c0 220 64 395.333 192 526s295 196 501 196c182 0 335 -49.667 459 -149v127h180v-447h-180c-40 90.667 -101.667 160.834 -185 210.501s-171 74.5 -263 74.5
c-138.667 0 -252.5 -50 -341.5 -150s-133.5 -226.333 -133.5 -379c0 -156.667 47.667 -284.667 143 -384s208.333 -149 339 -149c107.333 0 205 34.5 293 103.5s150 167.5 186 295.5l181 -101c-36.667 -140.667 -108.167 -252.834 -214.5 -336.501
s-232.5 -132.834 -378.5 -147.501l-8 -49c116 -16 174 -74.333 174 -175c0 -48.667 -19.667 -96 -59 -142s-131.333 -69 -276 -69c-25.333 0 -53.666 0.333008 -84.999 1v114c81.333 0 136.333 5.16699 165 15.5s43 28.166 43 53.499c0 24 -9.16699 41 -27.5 51
s-51.166 15 -98.499 15z" />
    <glyph glyph-name="Egrave" unicode="&#xc8;" horiz-adv-x="1280" 
d="M236 174v1043h-180v174h1156v-419h-172v245h-594v-414h517v-174h-517v-455h594v253h172v-427h-1156v174h180zM782 1473h-128l-289 317h276z" />
    <glyph glyph-name="Eacute" unicode="&#xc9;" horiz-adv-x="1280" 
d="M236 174v1043h-180v174h1156v-419h-172v245h-594v-414h517v-174h-517v-455h594v253h172v-427h-1156v174h180zM510 1473l141 317h276l-289 -317h-128z" />
    <glyph glyph-name="Ecircumflex" unicode="&#xca;" horiz-adv-x="1280" 
d="M236 174v1043h-180v174h1156v-419h-172v245h-594v-414h517v-174h-517v-455h594v253h172v-427h-1156v174h180zM630 1650l-165 -174h-135l168 312h267l173 -312h-141z" />
    <glyph glyph-name="Edieresis" unicode="&#xcb;" horiz-adv-x="1280" 
d="M236 174v1043h-180v174h1156v-419h-172v245h-594v-414h517v-174h-517v-455h594v253h172v-427h-1156v174h180zM342 1617c0 30 10.832 55.999 32.499 77.999s47.834 33 78.501 33s56.834 -10.833 78.501 -32.5s32.5 -47.834 32.5 -78.501
c0 -31.333 -10.833 -57.666 -32.5 -78.999s-47.834 -32 -78.501 -32c-30 0 -56 10.833 -78 32.5s-33 47.834 -33 78.501zM703.999 1617c0 29.333 10.499 55.167 31.499 77.5s47.5 33.5 79.5 33.5c30.667 0 56.834 -11 78.501 -33s32.5 -48 32.5 -78
c0 -30.667 -10.833 -56.834 -32.5 -78.501s-47.834 -32.5 -78.501 -32.5c-31.333 0 -57.666 10.833 -78.999 32.5s-32 47.834 -32 78.501z" />
    <glyph glyph-name="Igrave" unicode="&#xcc;" horiz-adv-x="641" 
d="M215 174v1043h-151v174h512v-174h-151v-1043h151v-174h-512v174h151zM482 1473h-128l-289 317h276z" />
    <glyph glyph-name="Iacute" unicode="&#xcd;" horiz-adv-x="641" 
d="M215 174v1043h-151v174h512v-174h-151v-1043h151v-174h-512v174h151zM178 1473l141 317h276l-289 -317h-128z" />
    <glyph glyph-name="Icircumflex" unicode="&#xce;" horiz-adv-x="641" 
d="M215 174v1043h-151v174h512v-174h-151v-1043h151v-174h-512v174h151zM316 1650l-165 -174h-135l168 312h267l173 -312h-141z" />
    <glyph glyph-name="Idieresis" unicode="&#xcf;" horiz-adv-x="641" 
d="M215 174v1043h-151v174h512v-174h-151v-1043h151v-174h-512v174h151zM28 1617c0 30 10.832 55.999 32.499 77.999s47.834 33 78.501 33s56.834 -10.833 78.501 -32.5s32.5 -47.834 32.5 -78.501c0 -31.333 -10.833 -57.666 -32.5 -78.999s-47.834 -32 -78.501 -32
c-30 0 -56 10.833 -78 32.5s-33 47.834 -33 78.501zM389.999 1617c0 29.333 10.499 55.167 31.499 77.5s47.5 33.5 79.5 33.5c30.667 0 56.834 -11 78.501 -33s32.5 -48 32.5 -78c0 -30.667 -10.833 -56.834 -32.5 -78.501s-47.834 -32.5 -78.501 -32.5
c-31.333 0 -57.666 10.833 -78.999 32.5s-32 47.834 -32 78.501z" />
    <glyph glyph-name="Eth" unicode="&#xd0;" horiz-adv-x="1493" 
d="M216 621l-207.998 -0.000976562v149h208v447h-189v174h538c148.667 0 263.167 -7.66699 343.5 -23s158.166 -50 233.499 -104s135.5 -128.167 180.5 -222.5s67.5 -201.833 67.5 -322.5c0 -137.333 -21.667 -256.666 -65 -357.999s-100.333 -177 -171 -227
s-154.334 -84.833 -251.001 -104.5s-220 -29.5 -370 -29.5h-506v174h189v447zM426.002 620.999l-0.00195312 -447h109c123.333 0 220.833 7.66699 292.5 23s132.167 41.5 181.5 78.5s89.333 92.833 120 167.5s46 162.667 46 264c0 120.667 -25.167 223 -75.5 307
s-114.666 138.833 -192.999 164.5s-199.166 38.5 -362.499 38.5h-118v-447h317v-149h-317z" />
    <glyph glyph-name="Ntilde" unicode="&#xd1;" horiz-adv-x="1473" 
d="M209 174v1043h-199v174h475l610 -1081v907h-197v174h571v-174h-205v-1231h-216l-667 1187v-999h199v-174h-570v174h199zM959 1768h111.999c-2.66699 -102.667 -22.167 -174.667 -58.5 -216s-77.833 -62 -124.5 -62c-47.333 0 -107.666 22.333 -180.999 67
c-64.667 38.667 -107 58 -127 58c-20.667 0 -35.334 -8.16699 -44.001 -24.5s-13 -44.833 -13 -85.5h-115c0.666992 96 18.667 164.667 54 206s78 62 128 62c40 0 101.333 -24 184 -72c57.333 -34 95.333 -51 114 -51c44.667 0 68.334 39.333 71.001 118z" />
    <glyph glyph-name="Ograve" unicode="&#xd2;" horiz-adv-x="1642" 
d="M102 702c0 202 66 371.001 198 507.001s304 204 516 204c214 0 388.333 -68 523 -204s202 -306.333 202 -511c0 -208.667 -68.5 -380.834 -205.5 -516.501s-311.167 -203.5 -522.5 -203.5c-134.667 0 -258.5 32.167 -371.5 96.5s-197.833 154 -254.5 269
s-85 234.5 -85 358.5zM331 701.001c0 -152.667 44.668 -280.668 134.001 -384.001s206.666 -155 351.999 -155c144 0 262.333 52.833 355 158.5s139 231.834 139 378.501c0 148 -47.167 273.167 -141.5 375.5s-212.833 153.5 -355.5 153.5c-142 0 -258 -50.333 -348 -151
s-135 -226 -135 -376zM921.001 1473h-128l-289 317h276z" />
    <glyph glyph-name="Oacute" unicode="&#xd3;" horiz-adv-x="1642" 
d="M102 702c0 202 66 371.001 198 507.001s304 204 516 204c214 0 388.333 -68 523 -204s202 -306.333 202 -511c0 -208.667 -68.5 -380.834 -205.5 -516.501s-311.167 -203.5 -522.5 -203.5c-134.667 0 -258.5 32.167 -371.5 96.5s-197.833 154 -254.5 269
s-85 234.5 -85 358.5zM331 701.001c0 -152.667 44.668 -280.668 134.001 -384.001s206.666 -155 351.999 -155c144 0 262.333 52.833 355 158.5s139 231.834 139 378.501c0 148 -47.167 273.167 -141.5 375.5s-212.833 153.5 -355.5 153.5c-142 0 -258 -50.333 -348 -151
s-135 -226 -135 -376zM721.001 1473l141 317h276l-289 -317h-128z" />
    <glyph glyph-name="Ocircumflex" unicode="&#xd4;" horiz-adv-x="1642" 
d="M102 702c0 202 66 371.001 198 507.001s304 204 516 204c214 0 388.333 -68 523 -204s202 -306.333 202 -511c0 -208.667 -68.5 -380.834 -205.5 -516.501s-311.167 -203.5 -522.5 -203.5c-134.667 0 -258.5 32.167 -371.5 96.5s-197.833 154 -254.5 269
s-85 234.5 -85 358.5zM331 701.001c0 -152.667 44.668 -280.668 134.001 -384.001s206.666 -155 351.999 -155c144 0 262.333 52.833 355 158.5s139 231.834 139 378.501c0 148 -47.167 273.167 -141.5 375.5s-212.833 153.5 -355.5 153.5c-142 0 -258 -50.333 -348 -151
s-135 -226 -135 -376zM818.001 1650l-165 -174h-135l168 312h267l173 -312h-141z" />
    <glyph glyph-name="Otilde" unicode="&#xd5;" horiz-adv-x="1642" 
d="M102 702c0 202 66 371.001 198 507.001s304 204 516 204c214 0 388.333 -68 523 -204s202 -306.333 202 -511c0 -208.667 -68.5 -380.834 -205.5 -516.501s-311.167 -203.5 -522.5 -203.5c-134.667 0 -258.5 32.167 -371.5 96.5s-197.833 154 -254.5 269
s-85 234.5 -85 358.5zM331 701.001c0 -152.667 44.668 -280.668 134.001 -384.001s206.666 -155 351.999 -155c144 0 262.333 52.833 355 158.5s139 231.834 139 378.501c0 148 -47.167 273.167 -141.5 375.5s-212.833 153.5 -355.5 153.5c-142 0 -258 -50.333 -348 -151
s-135 -226 -135 -376zM1041 1768h111.999c-2.66699 -102.667 -22.167 -174.667 -58.5 -216s-77.833 -62 -124.5 -62c-47.333 0 -107.666 22.333 -180.999 67c-64.667 38.667 -107 58 -127 58c-20.667 0 -35.334 -8.16699 -44.001 -24.5s-13 -44.833 -13 -85.5h-115
c0.666992 96 18.667 164.667 54 206s78 62 128 62c40 0 101.333 -24 184 -72c57.333 -34 95.333 -51 114 -51c44.667 0 68.334 39.333 71.001 118z" />
    <glyph glyph-name="Odieresis" unicode="&#xd6;" horiz-adv-x="1642" 
d="M102 702c0 202 66 371.001 198 507.001s304 204 516 204c214 0 388.333 -68 523 -204s202 -306.333 202 -511c0 -208.667 -68.5 -380.834 -205.5 -516.501s-311.167 -203.5 -522.5 -203.5c-134.667 0 -258.5 32.167 -371.5 96.5s-197.833 154 -254.5 269
s-85 234.5 -85 358.5zM331 701.001c0 -152.667 44.668 -280.668 134.001 -384.001s206.666 -155 351.999 -155c144 0 262.333 52.833 355 158.5s139 231.834 139 378.501c0 148 -47.167 273.167 -141.5 375.5s-212.833 153.5 -355.5 153.5c-142 0 -258 -50.333 -348 -151
s-135 -226 -135 -376zM529.001 1617c0 30 10.832 55.999 32.499 77.999s47.834 33 78.501 33s56.834 -10.833 78.501 -32.5s32.5 -47.834 32.5 -78.501c0 -31.333 -10.833 -57.666 -32.5 -78.999s-47.834 -32 -78.501 -32c-30 0 -56 10.833 -78 32.5s-33 47.834 -33 78.501z
M891 1617c0 29.333 10.499 55.167 31.499 77.5s47.5 33.5 79.5 33.5c30.667 0 56.834 -11 78.501 -33s32.5 -48 32.5 -78c0 -30.667 -10.833 -56.834 -32.5 -78.501s-47.834 -32.5 -78.501 -32.5c-31.333 0 -57.666 10.833 -78.999 32.5s-32 47.834 -32 78.501z" />
    <glyph glyph-name="multiply" unicode="&#xd7;" horiz-adv-x="1366" 
d="M176 300l396 395l-396 396l111 111l396 -396l396 396l111 -111l-396 -396l396 -395l-111 -111l-396 396l-396 -396z" />
    <glyph glyph-name="Oslash" unicode="&#xd8;" horiz-adv-x="1642" 
d="M1354 1194c124.667 -132 186.999 -298 186.999 -498c0 -207.333 -68.667 -378.833 -206 -514.5s-310 -203.5 -518 -203.5c-162.667 0 -305 43 -427 129l-113 -127l-102 86l114 129c-124.667 138 -187 308.667 -187 512c0 196.667 66.167 363.5 198.5 500.5
s303.833 205.5 514.5 205.5c168.667 0 314.334 -43.667 437.001 -131l113 128l102 -88zM432.999 357l681 769c-88 68 -187.667 102 -299 102c-142.667 0 -259 -50.333 -349 -151s-135 -225.667 -135 -375c0 -130.667 34 -245.667 102 -345zM1207 1029l-681 -767.999
c84 -66 181.333 -99 292 -99c142.667 0 260.5 53.167 353.5 159.5s139.5 231.833 139.5 376.5c0 125.333 -34.667 235.666 -104 330.999z" />
    <glyph glyph-name="Ugrave" unicode="&#xd9;" horiz-adv-x="1386" 
d="M409 1217l0.000976562 -695.999c0 -108 5.5 -182.667 16.5 -224s38.5 -76.5 82.5 -105.5s100.667 -43.5 170 -43.5c82.667 0 146 12.5 190 37.5s73.167 58.667 87.5 101s21.5 117.166 21.5 224.499v706h-161v174h544v-174h-174v-727
c0 -98 -4.16699 -169.167 -12.5 -213.5s-30.833 -90.666 -67.5 -138.999s-88.334 -87 -155.001 -116s-147.667 -43.5 -243 -43.5c-105.333 0 -193 13.5 -263 40.5s-122.667 63.167 -158 108.5s-58.833 93.666 -70.5 144.999s-17.5 131 -17.5 239v706h-172v174h547v-174h-165
zM805.001 1473h-128l-289 317h276z" />
    <glyph glyph-name="Uacute" unicode="&#xda;" horiz-adv-x="1386" 
d="M409 1217l0.000976562 -695.999c0 -108 5.5 -182.667 16.5 -224s38.5 -76.5 82.5 -105.5s100.667 -43.5 170 -43.5c82.667 0 146 12.5 190 37.5s73.167 58.667 87.5 101s21.5 117.166 21.5 224.499v706h-161v174h544v-174h-174v-727
c0 -98 -4.16699 -169.167 -12.5 -213.5s-30.833 -90.666 -67.5 -138.999s-88.334 -87 -155.001 -116s-147.667 -43.5 -243 -43.5c-105.333 0 -193 13.5 -263 40.5s-122.667 63.167 -158 108.5s-58.833 93.666 -70.5 144.999s-17.5 131 -17.5 239v706h-172v174h547v-174h-165
zM581.001 1473l141 317h276l-289 -317h-128z" />
    <glyph glyph-name="Ucircumflex" unicode="&#xdb;" horiz-adv-x="1386" 
d="M409 1217l0.000976562 -695.999c0 -108 5.5 -182.667 16.5 -224s38.5 -76.5 82.5 -105.5s100.667 -43.5 170 -43.5c82.667 0 146 12.5 190 37.5s73.167 58.667 87.5 101s21.5 117.166 21.5 224.499v706h-161v174h544v-174h-174v-727
c0 -98 -4.16699 -169.167 -12.5 -213.5s-30.833 -90.666 -67.5 -138.999s-88.334 -87 -155.001 -116s-147.667 -43.5 -243 -43.5c-105.333 0 -193 13.5 -263 40.5s-122.667 63.167 -158 108.5s-58.833 93.666 -70.5 144.999s-17.5 131 -17.5 239v706h-172v174h547v-174h-165
zM690.001 1650l-165 -174h-135l168 312h267l173 -312h-141z" />
    <glyph glyph-name="Udieresis" unicode="&#xdc;" horiz-adv-x="1386" 
d="M409 1217l0.000976562 -695.999c0 -108 5.5 -182.667 16.5 -224s38.5 -76.5 82.5 -105.5s100.667 -43.5 170 -43.5c82.667 0 146 12.5 190 37.5s73.167 58.667 87.5 101s21.5 117.166 21.5 224.499v706h-161v174h544v-174h-174v-727
c0 -98 -4.16699 -169.167 -12.5 -213.5s-30.833 -90.666 -67.5 -138.999s-88.334 -87 -155.001 -116s-147.667 -43.5 -243 -43.5c-105.333 0 -193 13.5 -263 40.5s-122.667 63.167 -158 108.5s-58.833 93.666 -70.5 144.999s-17.5 131 -17.5 239v706h-172v174h547v-174h-165
zM402.001 1617c0 30 10.832 55.999 32.499 77.999s47.834 33 78.501 33s56.834 -10.833 78.501 -32.5s32.5 -47.834 32.5 -78.501c0 -31.333 -10.833 -57.666 -32.5 -78.999s-47.834 -32 -78.501 -32c-30 0 -56 10.833 -78 32.5s-33 47.834 -33 78.501zM764 1617
c0 29.333 10.499 55.167 31.499 77.5s47.5 33.5 79.5 33.5c30.667 0 56.834 -11 78.501 -33s32.5 -48 32.5 -78c0 -30.667 -10.833 -56.834 -32.5 -78.501s-47.834 -32.5 -78.501 -32.5c-31.333 0 -57.666 10.833 -78.999 32.5s-32 47.834 -32 78.501z" />
    <glyph glyph-name="Yacute" unicode="&#xdd;" horiz-adv-x="1323" 
d="M563 174v459l-414 584h-170v174h572v-174h-175l307 -429l280 429h-175v174h555v-174h-184l-386 -584v-459h190v-174h-587v174h187zM579 1473l141 317h276l-289 -317h-128z" />
    <glyph glyph-name="Thorn" unicode="&#xde;" 
d="M216 174l0.00195312 1043h-175v174h565v-174h-180v-92h112c146 0 255.333 -10.333 328 -31s133.5 -67.5 182.5 -140.5s73.5 -159.167 73.5 -258.5c0 -79.333 -16.167 -150.5 -48.5 -213.5s-72.333 -109.5 -120 -139.5s-101.334 -50.167 -161.001 -60.5
s-149.834 -15.5 -270.501 -15.5h-96v-92h180v-174h-565v174h175zM426.002 434l119.999 0.000976562c136.667 0 231.334 19.5 284.001 58.5s79 107.833 79 206.5c0 62.667 -14 114.667 -42 156s-62.667 67.666 -104 78.999s-110.333 17 -207 17h-130v-517z" />
    <glyph glyph-name="germandbls" unicode="&#xdf;" horiz-adv-x="1323" 
d="M418 169l150 -0.00292969v-169h-512v169h172v671c0 142.667 11.5 250.334 34.5 323.001s72.167 133.5 147.5 182.5s167 73.5 275 73.5c118.667 0 218 -30 298 -90s120 -143.667 120 -251c0 -126.667 -59.667 -219.667 -179 -279
c99.333 -20.667 175.166 -67.5 227.499 -140.5s78.5 -158.5 78.5 -256.5c0 -126 -34.5 -227.167 -103.5 -303.5s-160.833 -114.5 -275.5 -114.5c-63.333 0 -121 12.667 -173 38v160c41.333 -23.333 83.666 -35 126.999 -35c68 0 122.5 23.5 163.5 70.5
s61.5 109.167 61.5 186.5c0 69.333 -16.167 126.833 -48.5 172.5s-71.666 76.834 -117.999 93.501s-108.166 26 -185.499 28v157c70.667 0 126.167 19.333 166.5 58s60.5 87.334 60.5 146.001c0 58 -20 104.833 -60 140.5s-92.667 53.5 -158 53.5
c-70 0 -125.333 -14.5 -166 -43.5s-68 -69.833 -82 -122.5s-21 -135 -21 -247v-671z" />
    <glyph glyph-name="agrave" unicode="&#xe0;" horiz-adv-x="1087" 
d="M1061 169l-0.00292969 -168.999h-332v118c-92 -89.333 -194.667 -134 -308 -134c-88 0 -164.5 28.667 -229.5 86s-97.5 130.666 -97.5 219.999c0 90 34.5 164.667 103.5 224s152.167 89 249.5 89c90.667 0 178.334 -27.333 263.001 -82v96
c0 49.333 -4.66699 87.333 -14 114s-31.166 50.667 -65.499 72s-79.166 32 -134.499 32c-95.333 0 -164.333 -38 -207 -114l-182 48c80.667 150.667 220 226 418 226c72.667 0 135.5 -9.83301 188.5 -29.5s92.5 -45 118.5 -76s43.5 -64.5 52.5 -100.5
s13.5 -93.333 13.5 -172v-448h163zM709.997 360.001c-82 64 -165 96.001 -249 96.001c-52.667 0 -96.667 -15.333 -132 -46s-53 -70.334 -53 -119.001c0 -45.333 15.5 -83.333 46.5 -114s73.167 -46 126.5 -46c92 0 179 38.667 261 116v113zM707.997 1096h-128l-289 317h276
z" />
    <glyph glyph-name="aacute" unicode="&#xe1;" horiz-adv-x="1087" 
d="M1061 169l-0.00292969 -168.999h-332v118c-92 -89.333 -194.667 -134 -308 -134c-88 0 -164.5 28.667 -229.5 86s-97.5 130.666 -97.5 219.999c0 90 34.5 164.667 103.5 224s152.167 89 249.5 89c90.667 0 178.334 -27.333 263.001 -82v96
c0 49.333 -4.66699 87.333 -14 114s-31.166 50.667 -65.499 72s-79.166 32 -134.499 32c-95.333 0 -164.333 -38 -207 -114l-182 48c80.667 150.667 220 226 418 226c72.667 0 135.5 -9.83301 188.5 -29.5s92.5 -45 118.5 -76s43.5 -64.5 52.5 -100.5
s13.5 -93.333 13.5 -172v-448h163zM709.997 360.001c-82 64 -165 96.001 -249 96.001c-52.667 0 -96.667 -15.333 -132 -46s-53 -70.334 -53 -119.001c0 -45.333 15.5 -83.333 46.5 -114s73.167 -46 126.5 -46c92 0 179 38.667 261 116v113zM355.997 1096l141 317h276
l-289 -317h-128z" />
    <glyph glyph-name="acircumflex" unicode="&#xe2;" horiz-adv-x="1087" 
d="M1061 169l-0.00292969 -168.999h-332v118c-92 -89.333 -194.667 -134 -308 -134c-88 0 -164.5 28.667 -229.5 86s-97.5 130.666 -97.5 219.999c0 90 34.5 164.667 103.5 224s152.167 89 249.5 89c90.667 0 178.334 -27.333 263.001 -82v96
c0 49.333 -4.66699 87.333 -14 114s-31.166 50.667 -65.499 72s-79.166 32 -134.499 32c-95.333 0 -164.333 -38 -207 -114l-182 48c80.667 150.667 220 226 418 226c72.667 0 135.5 -9.83301 188.5 -29.5s92.5 -45 118.5 -76s43.5 -64.5 52.5 -100.5
s13.5 -93.333 13.5 -172v-448h163zM709.997 360.001c-82 64 -165 96.001 -249 96.001c-52.667 0 -96.667 -15.333 -132 -46s-53 -70.334 -53 -119.001c0 -45.333 15.5 -83.333 46.5 -114s73.167 -46 126.5 -46c92 0 179 38.667 261 116v113zM521.997 1273l-165 -174h-135
l168 312h267l173 -312h-141z" />
    <glyph glyph-name="atilde" unicode="&#xe3;" horiz-adv-x="1087" 
d="M1061 169l-0.00292969 -168.999h-332v118c-92 -89.333 -194.667 -134 -308 -134c-88 0 -164.5 28.667 -229.5 86s-97.5 130.666 -97.5 219.999c0 90 34.5 164.667 103.5 224s152.167 89 249.5 89c90.667 0 178.334 -27.333 263.001 -82v96
c0 49.333 -4.66699 87.333 -14 114s-31.166 50.667 -65.499 72s-79.166 32 -134.499 32c-95.333 0 -164.333 -38 -207 -114l-182 48c80.667 150.667 220 226 418 226c72.667 0 135.5 -9.83301 188.5 -29.5s92.5 -45 118.5 -76s43.5 -64.5 52.5 -100.5
s13.5 -93.333 13.5 -172v-448h163zM709.997 360.001c-82 64 -165 96.001 -249 96.001c-52.667 0 -96.667 -15.333 -132 -46s-53 -70.334 -53 -119.001c0 -45.333 15.5 -83.333 46.5 -114s73.167 -46 126.5 -46c92 0 179 38.667 261 116v113zM745.997 1391h111.999
c-2.66699 -102.667 -22.167 -174.667 -58.5 -216s-77.833 -62 -124.5 -62c-47.333 0 -107.666 22.333 -180.999 67c-64.667 38.667 -107 58 -127 58c-20.667 0 -35.334 -8.16699 -44.001 -24.5s-13 -44.833 -13 -85.5h-115c0.666992 96 18.667 164.667 54 206s78 62 128 62
c40 0 101.333 -24 184 -72c57.333 -34 95.333 -51 114 -51c44.667 0 68.334 39.333 71.001 118z" />
    <glyph glyph-name="adieresis" unicode="&#xe4;" horiz-adv-x="1087" 
d="M1061 169l-0.00292969 -168.999h-332v118c-92 -89.333 -194.667 -134 -308 -134c-88 0 -164.5 28.667 -229.5 86s-97.5 130.666 -97.5 219.999c0 90 34.5 164.667 103.5 224s152.167 89 249.5 89c90.667 0 178.334 -27.333 263.001 -82v96
c0 49.333 -4.66699 87.333 -14 114s-31.166 50.667 -65.499 72s-79.166 32 -134.499 32c-95.333 0 -164.333 -38 -207 -114l-182 48c80.667 150.667 220 226 418 226c72.667 0 135.5 -9.83301 188.5 -29.5s92.5 -45 118.5 -76s43.5 -64.5 52.5 -100.5
s13.5 -93.333 13.5 -172v-448h163zM709.997 360.001c-82 64 -165 96.001 -249 96.001c-52.667 0 -96.667 -15.333 -132 -46s-53 -70.334 -53 -119.001c0 -45.333 15.5 -83.333 46.5 -114s73.167 -46 126.5 -46c92 0 179 38.667 261 116v113zM228.997 1255
c0 30 10.832 55.999 32.499 77.999s47.834 33 78.501 33s56.834 -10.833 78.501 -32.5s32.5 -47.834 32.5 -78.501c0 -31.333 -10.833 -57.666 -32.5 -78.999s-47.834 -32 -78.501 -32c-30 0 -56 10.833 -78 32.5s-33 47.834 -33 78.501zM590.996 1255
c0 29.333 10.499 55.167 31.499 77.5s47.5 33.5 79.5 33.5c30.667 0 56.834 -11 78.501 -33s32.5 -48 32.5 -78c0 -30.667 -10.833 -56.834 -32.5 -78.501s-47.834 -32.5 -78.501 -32.5c-31.333 0 -57.666 10.833 -78.999 32.5s-32 47.834 -32 78.501z" />
    <glyph glyph-name="aring" unicode="&#xe5;" horiz-adv-x="1087" 
d="M1061 169l-0.00292969 -168.999h-332v118c-92 -89.333 -194.667 -134 -308 -134c-88 0 -164.5 28.667 -229.5 86s-97.5 130.666 -97.5 219.999c0 90 34.5 164.667 103.5 224s152.167 89 249.5 89c90.667 0 178.334 -27.333 263.001 -82v96
c0 49.333 -4.66699 87.333 -14 114s-31.166 50.667 -65.499 72s-79.166 32 -134.499 32c-95.333 0 -164.333 -38 -207 -114l-182 48c80.667 150.667 220 226 418 226c72.667 0 135.5 -9.83301 188.5 -29.5s92.5 -45 118.5 -76s43.5 -64.5 52.5 -100.5
s13.5 -93.333 13.5 -172v-448h163zM709.997 360.001c-82 64 -165 96.001 -249 96.001c-52.667 0 -96.667 -15.333 -132 -46s-53 -70.334 -53 -119.001c0 -45.333 15.5 -83.333 46.5 -114s73.167 -46 126.5 -46c92 0 179 38.667 261 116v113zM321.997 1255
c0 52.667 19 99 57 139s85.333 60 142 60c55.333 0 102.333 -19.5 141 -58.5s58 -85.833 58 -140.5s-19.5 -101.5 -58.5 -140.5s-85.833 -58.5 -140.5 -58.5c-56.667 0 -104 19.833 -142 59.5s-57 86.167 -57 139.5zM399.997 1255c0 -32.667 11.667 -61.001 35 -85.001
s52 -36 86 -36c33.333 0 61.833 11.833 85.5 35.5s35.5 52.167 35.5 85.5c0 32.667 -11.833 60.834 -35.5 84.501s-52.167 35.5 -85.5 35.5c-34.667 0 -63.5 -12 -86.5 -36s-34.5 -52 -34.5 -84z" />
    <glyph glyph-name="ae" unicode="&#xe6;" horiz-adv-x="1812" 
d="M1725 435l-786 -0.00195312c6 -90 40.5 -162.333 103.5 -217s135.167 -82 216.5 -82c57.333 0 113 14.5 167 43.5s97.333 65.833 130 110.5l169 -75c-42.667 -74 -106.5 -133 -191.5 -177s-174.833 -66 -269.5 -66c-180.667 0 -324.667 69.333 -432 208
c-34.667 -51.333 -88.167 -98.833 -160.5 -142.5s-150.5 -65.5 -234.5 -65.5c-97.333 0 -180.333 27.333 -249 82s-103 129.334 -103 224.001c0 100 39 178.167 117 234.5s165 84.5 261 84.5c92.667 0 186.667 -27 282 -81v100c0 54.667 -5.83301 95.334 -17.5 122.001
s-34.667 49.5 -69 68.5s-79.5 28.5 -135.5 28.5c-114 0 -195 -39.333 -243 -118l-184 51c86.667 151.333 235.667 227 447 227c158.667 0 273.667 -50 345 -150c90 100 204.333 150 343 150c141.333 0 258.5 -52.667 351.5 -158s140.5 -239.333 142.5 -402zM1518 578.998
c-14.667 80 -49.501 141.501 -104.501 184.501s-117.167 64.5 -186.5 64.5s-131.166 -22.833 -185.499 -68.5s-88.833 -105.834 -103.5 -180.501h580zM744.999 346.999c-80.667 63.333 -165 94.999 -253 94.999c-59.333 0 -107.5 -15.5 -144.5 -46.5
s-55.5 -70.5 -55.5 -118.5c0 -45.333 18 -81.666 54 -108.999s78 -41 126 -41c104 0 195 41 273 123v97z" />
    <glyph glyph-name="ccedilla" unicode="&#xe7;" horiz-adv-x="1067" 
d="M597 -27l-13.002 -70.001c94.667 -23.333 142 -77.666 142 -162.999c0 -53.333 -23 -99.5 -69 -138.5s-123.667 -58.5 -233 -58.5h-72v111c70.667 0 119 6 145 18s39 31.333 39 58c0 38.667 -32.333 58 -97 58l35 191c-120 18.667 -217 77.5 -291 176.5
s-111 210.833 -111 335.5c0 146 48 266.5 144 361.5s206.667 142.5 332 142.5c107.333 0 198 -31.667 272 -95v68h170v-366h-170c-8.66699 70 -37.167 123.667 -85.5 161s-104.5 56 -168.5 56c-85.333 0 -154.666 -30.167 -207.999 -90.5s-80 -139.5 -80 -237.5
c0 -91.333 25.333 -171.833 76 -241.5s124 -104.5 220 -104.5c133.333 0 230 63.333 290 190l157 -74c-81.333 -180 -222.666 -276 -423.999 -288z" />
    <glyph glyph-name="egrave" unicode="&#xe8;" 
d="M1098 436l-814.001 -0.000976562c12 -89.333 47.333 -161.666 106 -216.999s133.667 -83 225 -83c132.667 0 237.667 53.333 315 160l168 -74c-54.667 -84.667 -125.667 -147.5 -213 -188.5s-178.666 -61.5 -273.999 -61.5c-148 0 -274.5 46.167 -379.5 138.5
s-157.5 216.833 -157.5 373.5c0 148.667 51.167 271 153.5 367s219.833 144 352.5 144c130 0 247.833 -46.833 353.5 -140.5s160.5 -233.167 164.5 -418.5zM901.999 573.999c-13.333 68 -48.668 129.501 -106.001 184.501s-127.666 82.5 -210.999 82.5
c-76 0 -141 -24.833 -195 -74.5s-87 -113.834 -99 -192.501h611zM739.997 1096h-128l-289 317h276z" />
    <glyph glyph-name="eacute" unicode="&#xe9;" 
d="M1098 436l-814.001 -0.000976562c12 -89.333 47.333 -161.666 106 -216.999s133.667 -83 225 -83c132.667 0 237.667 53.333 315 160l168 -74c-54.667 -84.667 -125.667 -147.5 -213 -188.5s-178.666 -61.5 -273.999 -61.5c-148 0 -274.5 46.167 -379.5 138.5
s-157.5 216.833 -157.5 373.5c0 148.667 51.167 271 153.5 367s219.833 144 352.5 144c130 0 247.833 -46.833 353.5 -140.5s160.5 -233.167 164.5 -418.5zM901.999 573.999c-13.333 68 -48.668 129.501 -106.001 184.501s-127.666 82.5 -210.999 82.5
c-76 0 -141 -24.833 -195 -74.5s-87 -113.834 -99 -192.501h611zM437.997 1096l141 317h276l-289 -317h-128z" />
    <glyph glyph-name="ecircumflex" unicode="&#xea;" 
d="M1098 436l-814.001 -0.000976562c12 -89.333 47.333 -161.666 106 -216.999s133.667 -83 225 -83c132.667 0 237.667 53.333 315 160l168 -74c-54.667 -84.667 -125.667 -147.5 -213 -188.5s-178.666 -61.5 -273.999 -61.5c-148 0 -274.5 46.167 -379.5 138.5
s-157.5 216.833 -157.5 373.5c0 148.667 51.167 271 153.5 367s219.833 144 352.5 144c130 0 247.833 -46.833 353.5 -140.5s160.5 -233.167 164.5 -418.5zM901.999 573.999c-13.333 68 -48.668 129.501 -106.001 184.501s-127.666 82.5 -210.999 82.5
c-76 0 -141 -24.833 -195 -74.5s-87 -113.834 -99 -192.501h611zM581.997 1273l-165 -174h-135l168 312h267l173 -312h-141z" />
    <glyph glyph-name="edieresis" unicode="&#xeb;" 
d="M1098 436l-814.001 -0.000976562c12 -89.333 47.333 -161.666 106 -216.999s133.667 -83 225 -83c132.667 0 237.667 53.333 315 160l168 -74c-54.667 -84.667 -125.667 -147.5 -213 -188.5s-178.666 -61.5 -273.999 -61.5c-148 0 -274.5 46.167 -379.5 138.5
s-157.5 216.833 -157.5 373.5c0 148.667 51.167 271 153.5 367s219.833 144 352.5 144c130 0 247.833 -46.833 353.5 -140.5s160.5 -233.167 164.5 -418.5zM901.999 573.999c-13.333 68 -48.668 129.501 -106.001 184.501s-127.666 82.5 -210.999 82.5
c-76 0 -141 -24.833 -195 -74.5s-87 -113.834 -99 -192.501h611zM293.997 1255c0 30 10.832 55.999 32.499 77.999s47.834 33 78.501 33s56.834 -10.833 78.501 -32.5s32.5 -47.834 32.5 -78.501c0 -31.333 -10.833 -57.666 -32.5 -78.999s-47.834 -32 -78.501 -32
c-30 0 -56 10.833 -78 32.5s-33 47.834 -33 78.501zM655.996 1255c0 29.333 10.499 55.167 31.499 77.5s47.5 33.5 79.5 33.5c30.667 0 56.834 -11 78.501 -33s32.5 -48 32.5 -78c0 -30.667 -10.833 -56.834 -32.5 -78.501s-47.834 -32.5 -78.501 -32.5
c-31.333 0 -57.666 10.833 -78.999 32.5s-32 47.834 -32 78.501z" />
    <glyph glyph-name="igrave" unicode="&#xec;" horiz-adv-x="598" 
d="M217 169v630h-151v169h341v-799h149v-169h-490v169h151zM441 1096h-128l-289 317h276z" />
    <glyph glyph-name="iacute" unicode="&#xed;" horiz-adv-x="598" 
d="M217 169v630h-151v169h341v-799h149v-169h-490v169h151zM145 1096l141 317h276l-289 -317h-128z" />
    <glyph glyph-name="icircumflex" unicode="&#xee;" horiz-adv-x="598" 
d="M217 169v630h-151v169h341v-799h149v-169h-490v169h151zM296 1273l-165 -174h-135l168 312h267l173 -312h-141z" />
    <glyph glyph-name="idieresis" unicode="&#xef;" horiz-adv-x="598" 
d="M217 169v630h-151v169h341v-799h149v-169h-490v169h151zM8 1255c0 30 10.832 55.999 32.499 77.999s47.834 33 78.501 33s56.834 -10.833 78.501 -32.5s32.5 -47.834 32.5 -78.501c0 -31.333 -10.833 -57.666 -32.5 -78.999s-47.834 -32 -78.501 -32
c-30 0 -56 10.833 -78 32.5s-33 47.834 -33 78.501zM369.999 1255c0 29.333 10.499 55.167 31.499 77.5s47.5 33.5 79.5 33.5c30.667 0 56.834 -11 78.501 -33s32.5 -48 32.5 -78c0 -30.667 -10.833 -56.834 -32.5 -78.501s-47.834 -32.5 -78.501 -32.5
c-31.333 0 -57.666 10.833 -78.999 32.5s-32 47.834 -32 78.501z" />
    <glyph glyph-name="eth" unicode="&#xf0;" 
d="M704 1317l177.999 74.0039l33 -79l-148 -61c218 -244 327 -483.333 327 -718c0 -162 -47.667 -296 -143 -402s-219.333 -159 -372 -159c-152 0 -273.333 52.333 -364 157s-136 224 -136 358c0 89.333 20.333 171.666 61 246.999s96.334 137.666 167.001 186.999
s152 74 244 74c96 0 183.667 -29.667 263 -89c-57.333 105.333 -123 199.333 -197 282l-313 -131l-33 79l284 119c-36 37.333 -83.667 82.666 -143 135.999h204c32.667 -24.667 62 -49.334 88 -74.001zM580.999 813.004c-82.667 0 -153.668 -30.166 -213.001 -90.499
s-89 -141.5 -89 -243.5c0 -90.667 27.833 -167.334 83.5 -230.001s128.834 -94 219.501 -94c88 0 161.667 33 221 99s89 144.667 89 236c0 72 -17.5 133.5 -52.5 184.5s-77.5 86.833 -127.5 107.5s-93.667 31 -131 31z" />
    <glyph glyph-name="ntilde" unicode="&#xf1;" 
d="M415 968v-116.999c122 88 233.333 132 334 132c62.667 0 114.5 -14.833 155.5 -44.5s67.833 -66 80.5 -109s19 -105.833 19 -188.5v-472h163v-169h-353v633c0 73.333 -11 121.166 -33 143.499s-49 33.5 -81 33.5c-84 0 -179 -41 -285 -123v-518h167v-169h-527v169h170
v630h-170v169h360zM831 1391h111.999c-2.66699 -102.667 -22.167 -174.667 -58.5 -216s-77.833 -62 -124.5 -62c-47.333 0 -107.666 22.333 -180.999 67c-64.667 38.667 -107 58 -127 58c-20.667 0 -35.334 -8.16699 -44.001 -24.5s-13 -44.833 -13 -85.5h-115
c0.666992 96 18.667 164.667 54 206s78 62 128 62c40 0 101.333 -24 184 -72c57.333 -34 95.333 -51 114 -51c44.667 0 68.334 39.333 71.001 118z" />
    <glyph glyph-name="ograve" unicode="&#xf2;" 
d="M78 484c0 149.333 49.333 271.833 148 367.5s219 143.5 361 143.5c139.333 0 259 -47.167 359 -141.5s150 -217.5 150 -369.5s-49.833 -275.333 -149.5 -370s-219.5 -142 -359.5 -142c-144 0 -264.833 48 -362.5 144s-146.5 218.667 -146.5 368zM279 484
c0 -95.333 29.833 -173.5 89.5 -234.5s132.5 -91.5 218.5 -91.5c87.333 0 160.5 30.833 219.5 92.5s88.5 139.5 88.5 233.5c0 94.667 -30 172.667 -90 234s-132.667 92 -218 92c-89.333 0 -163 -31.333 -221 -94s-87 -140 -87 -232zM723 1096h-128l-289 317h276z" />
    <glyph glyph-name="oacute" unicode="&#xf3;" 
d="M78 484c0 149.333 49.333 271.833 148 367.5s219 143.5 361 143.5c139.333 0 259 -47.167 359 -141.5s150 -217.5 150 -369.5s-49.833 -275.333 -149.5 -370s-219.5 -142 -359.5 -142c-144 0 -264.833 48 -362.5 144s-146.5 218.667 -146.5 368zM279 484
c0 -95.333 29.833 -173.5 89.5 -234.5s132.5 -91.5 218.5 -91.5c87.333 0 160.5 30.833 219.5 92.5s88.5 139.5 88.5 233.5c0 94.667 -30 172.667 -90 234s-132.667 92 -218 92c-89.333 0 -163 -31.333 -221 -94s-87 -140 -87 -232zM451 1096l141 317h276l-289 -317h-128z
" />
    <glyph glyph-name="ocircumflex" unicode="&#xf4;" 
d="M78 484c0 149.333 49.333 271.833 148 367.5s219 143.5 361 143.5c139.333 0 259 -47.167 359 -141.5s150 -217.5 150 -369.5s-49.833 -275.333 -149.5 -370s-219.5 -142 -359.5 -142c-144 0 -264.833 48 -362.5 144s-146.5 218.667 -146.5 368zM279 484
c0 -95.333 29.833 -173.5 89.5 -234.5s132.5 -91.5 218.5 -91.5c87.333 0 160.5 30.833 219.5 92.5s88.5 139.5 88.5 233.5c0 94.667 -30 172.667 -90 234s-132.667 92 -218 92c-89.333 0 -163 -31.333 -221 -94s-87 -140 -87 -232zM583 1273l-165 -174h-135l168 312h267
l173 -312h-141z" />
    <glyph glyph-name="otilde" unicode="&#xf5;" 
d="M78 484c0 149.333 49.333 271.833 148 367.5s219 143.5 361 143.5c139.333 0 259 -47.167 359 -141.5s150 -217.5 150 -369.5s-49.833 -275.333 -149.5 -370s-219.5 -142 -359.5 -142c-144 0 -264.833 48 -362.5 144s-146.5 218.667 -146.5 368zM279 484
c0 -95.333 29.833 -173.5 89.5 -234.5s132.5 -91.5 218.5 -91.5c87.333 0 160.5 30.833 219.5 92.5s88.5 139.5 88.5 233.5c0 94.667 -30 172.667 -90 234s-132.667 92 -218 92c-89.333 0 -163 -31.333 -221 -94s-87 -140 -87 -232zM807 1391h111.999
c-2.66699 -102.667 -22.167 -174.667 -58.5 -216s-77.833 -62 -124.5 -62c-47.333 0 -107.666 22.333 -180.999 67c-64.667 38.667 -107 58 -127 58c-20.667 0 -35.334 -8.16699 -44.001 -24.5s-13 -44.833 -13 -85.5h-115c0.666992 96 18.667 164.667 54 206s78 62 128 62
c40 0 101.333 -24 184 -72c57.333 -34 95.333 -51 114 -51c44.667 0 68.334 39.333 71.001 118z" />
    <glyph glyph-name="odieresis" unicode="&#xf6;" 
d="M78 484c0 149.333 49.333 271.833 148 367.5s219 143.5 361 143.5c139.333 0 259 -47.167 359 -141.5s150 -217.5 150 -369.5s-49.833 -275.333 -149.5 -370s-219.5 -142 -359.5 -142c-144 0 -264.833 48 -362.5 144s-146.5 218.667 -146.5 368zM279 484
c0 -95.333 29.833 -173.5 89.5 -234.5s132.5 -91.5 218.5 -91.5c87.333 0 160.5 30.833 219.5 92.5s88.5 139.5 88.5 233.5c0 94.667 -30 172.667 -90 234s-132.667 92 -218 92c-89.333 0 -163 -31.333 -221 -94s-87 -140 -87 -232zM295 1255
c0 30 10.832 55.999 32.499 77.999s47.834 33 78.501 33s56.834 -10.833 78.501 -32.5s32.5 -47.834 32.5 -78.501c0 -31.333 -10.833 -57.666 -32.5 -78.999s-47.834 -32 -78.501 -32c-30 0 -56 10.833 -78 32.5s-33 47.834 -33 78.501zM656.999 1255
c0 29.333 10.499 55.167 31.499 77.5s47.5 33.5 79.5 33.5c30.667 0 56.834 -11 78.501 -33s32.5 -48 32.5 -78c0 -30.667 -10.833 -56.834 -32.5 -78.501s-47.834 -32.5 -78.501 -32.5c-31.333 0 -57.666 10.833 -78.999 32.5s-32 47.834 -32 78.501z" />
    <glyph glyph-name="divide" unicode="&#xf7;" horiz-adv-x="1366" 
d="M683 1212c26.667 0 49.667 -9.5 69 -28.5s29 -42.167 29 -69.5s-9.66699 -50.333 -29 -69s-42.333 -28 -69 -28s-49.667 9.5 -69 28.5s-29 41.833 -29 68.5c0 28.667 9.83301 52.167 29.5 70.5s42.5 27.5 68.5 27.5zM135 774h1096v-157h-1096v157zM683 374
c26.667 0 49.667 -9.33301 69 -28s29 -41.667 29 -69s-9.66699 -50.5 -29 -69.5s-42.333 -28.5 -69 -28.5s-49.667 9.5 -69 28.5s-29 42.167 -29 69.5s9.66699 50.333 29 69s42.333 28 69 28z" />
    <glyph glyph-name="oslash" unicode="&#xf8;" 
d="M220 120c-94.667 97.333 -142.001 218.999 -142.001 364.999c0 148.667 49.667 270.834 149 366.501s219 143.5 359 143.5c112.667 0 213 -31 301 -93l97 114l66 -58l-96 -113c94.667 -96 142 -216.667 142 -362c0 -149.333 -49.667 -271.833 -149 -367.5
s-218.666 -143.5 -357.999 -143.5c-111.333 0 -211.333 30.333 -300 91l-97 -114l-69 58zM348.999 270.999l412 483.999c-53.333 36.667 -111.333 55 -174 55c-85.333 0 -158 -30.667 -218 -92s-90 -139 -90 -233c0 -83.333 23.333 -154.666 70 -213.999zM825.999 693.998
l-411 -482.999c52 -35.333 109.667 -53 173 -53c82 0 153.667 29.833 215 89.5s92 138.167 92 235.5c0 83.333 -23 153.666 -69 210.999z" />
    <glyph glyph-name="ugrave" unicode="&#xf9;" horiz-adv-x="1153" 
d="M1133 169l0.000976562 -169h-357v111c-111.333 -84.667 -218 -127 -320 -127c-64.667 0 -118.167 14.167 -160.5 42.5s-70.5 65 -84.5 110s-21 117.5 -21 217.5v445h-137v169h327v-590c0 -71.333 2 -119.333 6 -144s15.667 -45 35 -61s43.666 -24 72.999 -24
c88 0 182 42 282 126v524h-171v169h361v-799h167zM739.001 1096h-128l-289 317h276z" />
    <glyph glyph-name="uacute" unicode="&#xfa;" horiz-adv-x="1153" 
d="M1133 169l0.000976562 -169h-357v111c-111.333 -84.667 -218 -127 -320 -127c-64.667 0 -118.167 14.167 -160.5 42.5s-70.5 65 -84.5 110s-21 117.5 -21 217.5v445h-137v169h327v-590c0 -71.333 2 -119.333 6 -144s15.667 -45 35 -61s43.666 -24 72.999 -24
c88 0 182 42 282 126v524h-171v169h361v-799h167zM433.001 1096l141 317h276l-289 -317h-128z" />
    <glyph glyph-name="ucircumflex" unicode="&#xfb;" horiz-adv-x="1153" 
d="M1133 169l0.000976562 -169h-357v111c-111.333 -84.667 -218 -127 -320 -127c-64.667 0 -118.167 14.167 -160.5 42.5s-70.5 65 -84.5 110s-21 117.5 -21 217.5v445h-137v169h327v-590c0 -71.333 2 -119.333 6 -144s15.667 -45 35 -61s43.666 -24 72.999 -24
c88 0 182 42 282 126v524h-171v169h361v-799h167zM589.001 1273l-165 -174h-135l168 312h267l173 -312h-141z" />
    <glyph glyph-name="udieresis" unicode="&#xfc;" horiz-adv-x="1153" 
d="M1133 169l0.000976562 -169h-357v111c-111.333 -84.667 -218 -127 -320 -127c-64.667 0 -118.167 14.167 -160.5 42.5s-70.5 65 -84.5 110s-21 117.5 -21 217.5v445h-137v169h327v-590c0 -71.333 2 -119.333 6 -144s15.667 -45 35 -61s43.666 -24 72.999 -24
c88 0 182 42 282 126v524h-171v169h361v-799h167zM301.001 1255c0 30 10.832 55.999 32.499 77.999s47.834 33 78.501 33s56.834 -10.833 78.501 -32.5s32.5 -47.834 32.5 -78.501c0 -31.333 -10.833 -57.666 -32.5 -78.999s-47.834 -32 -78.501 -32
c-30 0 -56 10.833 -78 32.5s-33 47.834 -33 78.501zM663 1255c0 29.333 10.499 55.167 31.499 77.5s47.5 33.5 79.5 33.5c30.667 0 56.834 -11 78.501 -33s32.5 -48 32.5 -78c0 -30.667 -10.833 -56.834 -32.5 -78.501s-47.834 -32.5 -78.501 -32.5
c-31.333 0 -57.666 10.833 -78.999 32.5s-32 47.834 -32 78.501z" />
    <glyph glyph-name="yacute" unicode="&#xfd;" horiz-adv-x="1153" 
d="M496 17l-318 782h-161v169h479v-169h-116l209 -536l205 536h-128v169h469v-169h-144l-479 -1233h-321v166h189zM462 1096l141 317h276l-289 -317h-128z" />
    <glyph glyph-name="thorn" unicode="&#xfe;" horiz-adv-x="1280" 
d="M191 -265l-0.000976562 1487h-163v169h353v-575c94.667 111.333 209.334 167 344.001 167c136 0 248.5 -46.667 337.5 -140s133.5 -214.666 133.5 -363.999c0 -156.667 -48.333 -280.334 -145 -371.001s-206.667 -136 -330 -136c-128 0 -241.333 49.333 -340 148v-385
h188v-169h-555v169h177zM377.999 470c0 -53.333 11.001 -104.333 33.001 -153s57 -89.5 105 -122.5s104.333 -49.5 169 -49.5c90.667 0 165.5 30.333 224.5 91s88.5 144 88.5 250c0 103.333 -30.833 184 -92.5 242s-131.834 87 -210.501 87
c-84 0 -157.833 -31.5 -221.5 -94.5s-95.5 -146.5 -95.5 -250.5z" />
    <glyph glyph-name="ydieresis" unicode="&#xff;" horiz-adv-x="1153" 
d="M496 17l-318 782h-161v169h479v-169h-116l209 -536l205 536h-128v169h469v-169h-144l-479 -1233h-321v166h189zM296 1255c0 30 10.832 55.999 32.499 77.999s47.834 33 78.501 33s56.834 -10.833 78.501 -32.5s32.5 -47.834 32.5 -78.501
c0 -31.333 -10.833 -57.666 -32.5 -78.999s-47.834 -32 -78.501 -32c-30 0 -56 10.833 -78 32.5s-33 47.834 -33 78.501zM657.999 1255c0 29.333 10.499 55.167 31.499 77.5s47.5 33.5 79.5 33.5c30.667 0 56.834 -11 78.501 -33s32.5 -48 32.5 -78
c0 -30.667 -10.833 -56.834 -32.5 -78.501s-47.834 -32.5 -78.501 -32.5c-31.333 0 -57.666 10.833 -78.999 32.5s-32 47.834 -32 78.501z" />
    <glyph glyph-name="dotlessi" unicode="&#x131;" horiz-adv-x="598" 
d="M217 169v630h-151v169h341v-799h149v-169h-490v169h151z" />
    <glyph glyph-name="OE" unicode="&#x152;" horiz-adv-x="2091" 
d="M1256 1217l0.000976562 -408.999h515v-174h-515v-460h596v251h171v-425h-1054c-164.667 0 -283.5 6 -356.5 18s-152.833 46.833 -239.5 104.5s-156.834 136.834 -210.501 237.501s-80.5 208 -80.5 322c0 118.667 24.5 228.667 73.5 330s110 179.166 183 233.499
s151.167 92.166 234.5 113.499s199.333 32 348 32h1102v-419h-171v245h-596zM1046 1217h-181.998c-94.667 0 -170.334 -6.66699 -227.001 -20s-112.334 -40.333 -167.001 -81s-98.167 -97.5 -130.5 -170.5s-48.5 -156.167 -48.5 -249.5c0 -122 25.5 -224 76.5 -306
s117.333 -138.5 199 -169.5s189.5 -46.5 323.5 -46.5h156v1043z" />
    <glyph glyph-name="oe" unicode="&#x153;" horiz-adv-x="1942" 
d="M1862 435l-800.001 -0.00195312c4 -80 35.167 -149.333 93.5 -208s132.166 -88 221.499 -88c125.333 0 231.333 53 318 159l167 -72c-54.667 -89.333 -126.5 -154 -215.5 -194s-177.833 -60 -266.5 -60c-175.333 0 -314.333 65.667 -417 197
c-92.667 -131.333 -220.667 -197 -384 -197c-140 0 -259.333 47.833 -358 143.5s-148 218.834 -148 369.501c0 96.667 22.833 183.834 68.5 261.501s108.834 138.5 189.501 182.5s161.334 66 242.001 66c154.667 0 284.667 -65.333 390 -196c96 130.667 225.333 196 388 196
c142 0 262.667 -52.667 362 -158s149 -239.333 149 -402zM1648 578.998c-14.667 76 -50.666 136.167 -107.999 180.5s-122 66.5 -194 66.5c-68.667 0 -128.834 -21.333 -180.501 -64s-84.5 -103.667 -98.5 -183h581zM279 480.998c0 -96 28.667 -174.167 86 -234.5
s128.333 -90.5 213 -90.5c86.667 0 157.5 31.333 212.5 94s82.5 141.667 82.5 237c0 105.333 -32.333 184.333 -97 237s-132.334 79 -203.001 79c-83.333 0 -153.166 -30.333 -209.499 -91s-84.5 -137.667 -84.5 -231z" />
    <glyph glyph-name="Scaron" unicode="&#x160;" horiz-adv-x="1087" 
d="M71 0v504.998h174v-123c83.333 -151.333 192.333 -227 327 -227c68.667 0 126.667 21 174 63s71 97 71 165c0 66 -19.333 113.5 -58 142.5s-111.667 57.833 -219 86.5c-124.667 33.333 -217 64.833 -277 94.5s-107.833 72 -143.5 127s-53.5 120.167 -53.5 195.5
c0 116.667 38.833 209.834 116.5 279.501s175.167 104.5 292.5 104.5c111.333 0 214.666 -36 309.999 -108v93h170v-422h-170v97c-71.333 107.333 -169.666 161 -294.999 161c-76 0 -134.333 -17.5 -175 -52.5s-61 -76.833 -61 -125.5c0 -37.333 10.333 -70.166 31 -98.499
s47 -49.166 79 -62.499s95 -32 189 -56c122.667 -32 211.667 -61.833 267 -89.5s103 -73.834 143 -138.501s60 -139 60 -223c0 -118.667 -41.833 -216.667 -125.5 -294s-187.167 -116 -310.5 -116c-126.667 0 -240.667 45.667 -342 137v-115h-174zM525 1613l166 175h134
l-168 -312h-266l-174 312h141z" />
    <glyph glyph-name="scaron" unicode="&#x161;" horiz-adv-x="938" 
d="M84 0l-0.000976562 332.003h170v-32c6 -45.333 30.5 -82.666 73.5 -111.999s93.833 -44 152.5 -44c61.333 0 110.333 10.667 147 32s55 51 55 89c0 36.667 -15.167 63.667 -45.5 81s-90.5 33.333 -180.5 48c-133.333 22.667 -228.5 59.167 -285.5 109.5
s-85.5 115.5 -85.5 195.5c0 80.667 31 148.167 93 202.5s143.667 81.5 245 81.5c91.333 0 170 -18.667 236 -56v41h169v-321h-169v59c-51.333 79.333 -126 119 -224 119c-50 0 -91.167 -10.833 -123.5 -32.5s-48.5 -50.5 -48.5 -86.5c0 -36.667 14.833 -61.834 44.5 -75.501
s93.5 -28.167 191.5 -43.5c94 -14.667 165 -31.834 213 -51.501s87.833 -52.334 119.5 -98.001s47.5 -98.834 47.5 -159.501c0 -90 -34.5 -161.5 -103.5 -214.5s-158.5 -79.5 -268.5 -79.5c-103.333 0 -187.666 23.333 -252.999 70v-54h-170zM484.999 1236l166 175h134
l-168 -312h-266l-174 312h141z" />
    <glyph glyph-name="Ydieresis" unicode="&#x178;" horiz-adv-x="1323" 
d="M563 174v459l-414 584h-170v174h572v-174h-175l307 -429l280 429h-175v174h555v-174h-184l-386 -584v-459h190v-174h-587v174h187zM369 1617c0 30 10.832 55.999 32.499 77.999s47.834 33 78.501 33s56.834 -10.833 78.501 -32.5s32.5 -47.834 32.5 -78.501
c0 -31.333 -10.833 -57.666 -32.5 -78.999s-47.834 -32 -78.501 -32c-30 0 -56 10.833 -78 32.5s-33 47.834 -33 78.501zM730.999 1617c0 29.333 10.499 55.167 31.499 77.5s47.5 33.5 79.5 33.5c30.667 0 56.834 -11 78.501 -33s32.5 -48 32.5 -78
c0 -30.667 -10.833 -56.834 -32.5 -78.501s-47.834 -32.5 -78.501 -32.5c-31.333 0 -57.666 10.833 -78.999 32.5s-32 47.834 -32 78.501z" />
    <glyph glyph-name="florin" unicode="&#x192;" horiz-adv-x="1130" 
d="M46 -405l35.0049 155c66.667 -14.667 117.334 -22 152.001 -22c35.333 0 62.666 9.33301 81.999 28s34.666 60 45.999 124l177 1042h-201l24 140h201l24 133c15.333 82 32.666 141.5 51.999 178.5s48.666 66 87.999 87s86 31.5 140 31.5c56 0 129 -12.667 219 -38
l-35 -153c-66.667 16 -118 24 -154 24c-42.667 0 -72.167 -10.833 -88.5 -32.5s-30.5 -64.167 -42.5 -127.5l-19 -103h204l-25 -140h-204l-191 -1092c-17.333 -98 -46.333 -166 -87 -204s-96.334 -57 -167.001 -57c-66.667 0 -143.334 8.66699 -230.001 26z" />
    <glyph glyph-name="circumflex" unicode="&#x2c6;" horiz-adv-x="682" 
d="M337 1273l-165 -174h-135l168 312h267l173 -312h-141z" />
    <glyph glyph-name="caron" unicode="&#x2c7;" horiz-adv-x="682" 
d="M345 1236l166 175h134l-168 -312h-266l-174 312h141z" />
    <glyph glyph-name="uni02C9" unicode="&#x2c9;" horiz-adv-x="682" 
d="M49 1167v159h584v-159h-584z" />
    <glyph glyph-name="breve" unicode="&#x2d8;" horiz-adv-x="682" 
d="M33 1397h143.002c16 -96.667 71 -145 165 -145c95.333 0 150.666 48.333 165.999 145h143c-6.66699 -83.333 -38.334 -151.666 -95.001 -204.999s-128 -80 -214 -80s-157.167 26.667 -213.5 80s-87.833 121.666 -94.5 204.999z" />
    <glyph glyph-name="dotaccent" unicode="&#x2d9;" horiz-adv-x="682" 
d="M227 1255c0 31.333 11.167 58.166 33.5 80.499s49.5 33.5 81.5 33.5c31.333 0 58.166 -11.167 80.499 -33.5s33.5 -49.166 33.5 -80.499c0 -32 -11.167 -59.167 -33.5 -81.5s-49.166 -33.5 -80.499 -33.5c-32.667 0 -60 11.5 -82 34.5s-33 49.833 -33 80.5z" />
    <glyph glyph-name="ring" unicode="&#x2da;" horiz-adv-x="682" 
d="M142 1255c0 52.667 19 99 57 139s85.333 60 142 60c55.333 0 102.333 -19.5 141 -58.5s58 -85.833 58 -140.5s-19.5 -101.5 -58.5 -140.5s-85.833 -58.5 -140.5 -58.5c-56.667 0 -104 19.833 -142 59.5s-57 86.167 -57 139.5zM220 1255
c0 -32.667 11.667 -61.001 35 -85.001s52 -36 86 -36c33.333 0 61.833 11.833 85.5 35.5s35.5 52.167 35.5 85.5c0 32.667 -11.833 60.834 -35.5 84.501s-52.167 35.5 -85.5 35.5c-34.667 0 -63.5 -12 -86.5 -36s-34.5 -52 -34.5 -84z" />
    <glyph glyph-name="ogonek" unicode="&#x2db;" horiz-adv-x="682" 
d="M215 0h160.001c-26.667 -48 -40 -96 -40 -144c0 -86.667 37 -130 111 -130c27.333 0 54.666 6.66699 81.999 20v-134c-60 -29.333 -116 -44 -168 -44c-60.667 0 -110 19.333 -148 58s-57 89.667 -57 153c0 59.333 20 133 60 221z" />
    <glyph glyph-name="tilde" unicode="&#x2dc;" horiz-adv-x="682" 
d="M561 1391h111.999c-2.66699 -102.667 -22.167 -174.667 -58.5 -216s-77.833 -62 -124.5 -62c-47.333 0 -107.666 22.333 -180.999 67c-64.667 38.667 -107 58 -127 58c-20.667 0 -35.334 -8.16699 -44.001 -24.5s-13 -44.833 -13 -85.5h-115
c0.666992 96 18.667 164.667 54 206s78 62 128 62c40 0 101.333 -24 184 -72c57.333 -34 95.333 -51 114 -51c44.667 0 68.334 39.333 71.001 118z" />
    <glyph glyph-name="hungarumlaut" unicode="&#x2dd;" horiz-adv-x="682" 
d="M-39 1096l141 317h276l-289 -317h-128zM303 1096l141 317h276l-289 -317h-128z" />
    <glyph glyph-name="pi" unicode="&#x3c0;" horiz-adv-x="1280" 
d="M51 1063h1179v-158h-159v-905h-189v905h-484v-905h-188v905h-159v158z" />
    <glyph glyph-name="endash" unicode="&#x2013;" horiz-adv-x="1024" 
d="M-12 601h1048v-177h-1048v177z" />
    <glyph glyph-name="emdash" unicode="&#x2014;" horiz-adv-x="2048" 
d="M-12 601h2072v-177h-2072v177z" />
    <glyph glyph-name="quoteleft" unicode="&#x2018;" horiz-adv-x="598" 
d="M422 1114v-246h-246v214c0 72.667 5.66699 129 17 169s35.333 72.833 72 98.5s89 39.5 157 41.5v-104c-80 -12 -120 -61.667 -120 -149v-24h120z" />
    <glyph glyph-name="quoteright" unicode="&#x2019;" horiz-adv-x="598" 
d="M176 1145v246h246v-213c0 -73.333 -5.66699 -130 -17 -170s-35.5 -72.667 -72.5 -98s-89.167 -39.333 -156.5 -42v105c80 12 120 61.333 120 148c0 5.33301 -0.333008 13.333 -1 24h-119z" />
    <glyph glyph-name="quotesinglbase" unicode="&#x201a;" horiz-adv-x="598" 
d="M176 0v246h246v-214c0 -72.667 -5.66699 -129 -17 -169s-35.5 -72.833 -72.5 -98.5s-89.167 -39.5 -156.5 -41.5v104c80 12 120 61.667 120 149c0 5.33301 -0.333008 13.333 -1 24h-119z" />
    <glyph glyph-name="quotedblleft" unicode="&#x201c;" horiz-adv-x="1067" 
d="M410 1114v-246h-246v214c0 72.667 5.66699 129 17 169s35.333 72.833 72 98.5s89 39.5 157 41.5v-104c-80 -12 -120 -61.667 -120 -149v-24h120zM904 1114v-246h-245v214c0 72.667 5.5 129 16.5 169s35 72.833 72 98.5s89.167 39.5 156.5 41.5v-104
c-80 -12 -120 -61.667 -120 -149c0 -5.33301 0.333008 -13.333 1 -24h119z" />
    <glyph glyph-name="quotedblright" unicode="&#x201d;" horiz-adv-x="1067" 
d="M163 1145v246h246v-213c0 -73.333 -5.66699 -130 -17 -170s-35.5 -72.667 -72.5 -98s-89.167 -39.333 -156.5 -42v105c80 12 120 61.333 120 148c0 5.33301 -0.333008 13.333 -1 24h-119zM658 1145v246h245v-213c0 -73.333 -5.66699 -130 -17 -170
s-35.333 -72.667 -72 -98s-88.667 -39.333 -156 -42v105c80 12 120 61.333 120 148c0 5.33301 -0.333008 13.333 -1 24h-119z" />
    <glyph glyph-name="quotedblbase" unicode="&#x201e;" horiz-adv-x="1067" 
d="M163 0v246h246v-214c0 -72.667 -5.66699 -129 -17 -169s-35.5 -72.833 -72.5 -98.5s-89.167 -39.5 -156.5 -41.5v104c80 12 120 61.667 120 149c0 5.33301 -0.333008 13.333 -1 24h-119zM658 0v246h245v-214c0 -72.667 -5.66699 -129 -17 -169s-35.333 -72.833 -72 -98.5
s-88.667 -39.5 -156 -41.5v104c80 12 120 61.667 120 149c0 5.33301 -0.333008 13.333 -1 24h-119z" />
    <glyph glyph-name="dagger" unicode="&#x2020;" horiz-adv-x="1067" 
d="M431 1413h210v-230c-44 -78.667 -67 -170.667 -69 -276c108.667 2 195.334 22.333 260.001 61h188v-192h-188c-64.667 38.667 -145.667 58 -243 58h-17c0 -116 23 -210.333 69 -283v-241l-69 -755h-76l-65 755v241c42 76 63.667 170.333 65 283
c-102 -0.666992 -187.333 -20 -256 -58h-193v192h193c75.333 -40.667 160.666 -61 255.999 -61c0 124 -21.667 216 -65 276v230z" />
    <glyph glyph-name="daggerdbl" unicode="&#x2021;" horiz-adv-x="1067" 
d="M429 1413h210.001v-228c-41.333 -72 -64.333 -153.333 -69 -244c105.333 6 184.666 25.333 237.999 58h178v-186h-178c-67.333 34.667 -146.666 53 -237.999 55c9.33301 -132.667 42.333 -257.334 99 -374.001c-59.333 -121.333 -92.333 -248.666 -99 -381.999
c102.667 3.33301 182 22.333 238 57h178v-184h-178c-52 30 -131.333 48 -238 54c8.66699 -95.333 31.667 -174 69 -236v-237h-210v237c33.333 59.333 55.333 138 66 236c-86.667 0 -163.334 -18 -230.001 -54h-185v184h185c49.333 -30 126 -49 230 -57
c-7.33301 146.667 -37.333 274 -90 382c50 101.333 80 226 90 374c-90.667 -2 -167.334 -20.333 -230.001 -55h-185v186h185c60.667 -34 137.334 -53.333 230.001 -58c-5.33301 102 -27.333 183.333 -66 244v228z" />
    <glyph glyph-name="bullet" unicode="&#x2022;" horiz-adv-x="725" 
d="M364 946c67.333 0 126 -23.833 176 -71.5s75 -107.5 75 -179.5c0 -68.667 -24.667 -127.5 -74 -176.5s-108.333 -73.5 -177 -73.5c-69.333 0 -128.5 24.5 -177.5 73.5s-73.5 107.833 -73.5 176.5c0 69.333 24.667 128.5 74 177.5s108.333 73.5 177 73.5z" />
    <glyph glyph-name="ellipsis" unicode="&#x2026;" horiz-adv-x="2048" 
d="M219 0v246h246v-246h-246zM902 0v246h245v-246h-245zM1584 0v246h246v-246h-246z" />
    <glyph glyph-name="perthousand" unicode="&#x2030;" horiz-adv-x="2218" 
d="M56 1040c0 111.333 25 201.333 75 270s124 103 222 103c91.333 0 163.666 -32.333 216.999 -97s80 -156.667 80 -276c0 -113.333 -25.5 -203.666 -76.5 -270.999s-124.5 -101 -220.5 -101c-91.333 0 -163.666 32.167 -216.999 96.5s-80 156.166 -80 275.499zM200 1041
c0 -184.667 51 -277 153 -277c101.333 0 152 92 152 276c0 184.667 -50.667 277 -152 277c-102 0 -153 -92 -153 -276zM120 0l1103 1391h142l-1095 -1391h-150zM823 351c0 120 26.833 212.001 80.5 276.001s125.834 96 216.501 96c91.333 0 163.666 -32.333 216.999 -97
s80 -156.334 80 -275.001c0 -120 -26.833 -212.167 -80.5 -276.5s-125.834 -96.5 -216.501 -96.5c-97.333 0 -171.166 34.167 -221.499 102.5s-75.5 158.5 -75.5 270.5zM968 351.001c0 -184.667 50.667 -277 152 -277c102 0 153 92 153 276c0 184.667 -51 277 -153 277
c-101.333 0 -152 -92 -152 -276zM1571 351.001c0 120 26.833 212.001 80.5 276.001s125.834 96 216.501 96c91.333 0 163.666 -32.333 216.999 -97s80 -156.334 80 -275.001c0 -120 -26.833 -212.167 -80.5 -276.5s-125.834 -96.5 -216.501 -96.5
c-97.333 0 -171.166 34.167 -221.499 102.5s-75.5 158.5 -75.5 270.5zM1716 351.002c0 -184.667 50.667 -277 152 -277c102 0 153 92 153 276c0 184.667 -51 277 -153 277c-101.333 0 -152 -92 -152 -276z" />
    <glyph glyph-name="guilsinglleft" unicode="&#x2039;" horiz-adv-x="598" 
d="M55 484l303 484h194l-292 -484l292 -484h-194z" />
    <glyph glyph-name="guilsinglright" unicode="&#x203a;" horiz-adv-x="598" 
d="M542 484l-303 -484h-194l292 484l-292 484h194z" />
    <glyph glyph-name="trademark" unicode="&#x2122;" horiz-adv-x="2048" 
d="M494 577v693h-264v121h666v-121h-266v-693h-136zM987 577v814h200l206 -651l199 651h196v-814h-124v683l-210 -683h-123l-219 693v-693h-125z" />
    <glyph glyph-name="Omega" unicode="&#x2126;" horiz-adv-x="1621" 
d="M504 160c-230.667 134 -346.001 350.999 -346.001 650.999c0 118.667 24.833 232 74.5 340s124.5 193.667 224.5 257s219.667 95 359 95c198.667 0 356.167 -66.667 472.5 -200s174.5 -300 174.5 -500c0 -277.333 -114.667 -491.666 -344 -642.999l367 6v-166h-578v177
c110 50 195.333 130.333 256 241s91 230.334 91 359.001c0 154.667 -37 287.167 -111 397.5s-184 165.5 -330 165.5c-149.333 0 -260.666 -54.833 -333.999 -164.5s-110 -239.5 -110 -389.5c0 -148.667 31 -275.834 93 -381.501s145 -180.5 249 -224.5v-180h-577v168z" />
    <glyph glyph-name="partialdiff" unicode="&#x2202;" horiz-adv-x="1012" 
d="M426 1138l-134.999 59.999c42.667 100 97.167 173.833 163.5 221.5s131.833 71.5 196.5 71.5c98.667 0 177 -46.333 235 -139s87 -234.667 87 -426c0 -167.333 -24.333 -325.166 -73 -473.499s-123.167 -265 -223.5 -350s-205.166 -127.5 -314.499 -127.5
c-90 0 -163.5 30.5 -220.5 91.5s-85.5 145.833 -85.5 254.5c0 112.667 30.667 216.334 92 311.001s152.166 166.667 272.499 216s266.166 74.666 437.499 75.999c-1.33301 166.667 -20.333 281.5 -57 344.5s-86 94.5 -148 94.5c-95.333 0 -171 -75 -227 -225z
M854.001 795.999c-160.667 -8 -279.833 -30.332 -357.5 -66.999s-140.5 -96.334 -188.5 -179.001s-72 -165 -72 -247c0 -58.667 17.833 -105.167 53.5 -139.5s74.5 -51.5 116.5 -51.5c96 0 189 56.5 279 169.5s146.333 284.5 169 514.5z" />
    <glyph glyph-name="Delta" unicode="&#x2206;" horiz-adv-x="1259" 
d="M1229 0h-1200l628 1387zM993 82l-399 967l-440 -967h839z" />
    <glyph glyph-name="product" unicode="&#x220f;" horiz-adv-x="1686" 
d="M162 1419h1362v-1875h-191v1701h-980v-1701h-191v1875z" />
    <glyph glyph-name="summation" unicode="&#x2211;" horiz-adv-x="1460" 
d="M139 1419h1237v-164h-988l607 -752l-649 -795h1040v-164h-1264v190l620 762l-603 747v176z" />
    <glyph glyph-name="fraction" unicode="&#x2215;" horiz-adv-x="618" 
d="M-303 0l1104 1389h120l-1103 -1389h-121z" />
    <glyph glyph-name="periodcentered" unicode="&#x2219;" horiz-adv-x="598" 
d="M176 573v245h246v-245h-246z" />
    <glyph glyph-name="radical" unicode="&#x221a;" horiz-adv-x="1131" 
d="M1053 1869h74l-312 -1947l-496 1021l-198 -91l-34 64l301 151l405 -823z" />
    <glyph glyph-name="infinity" unicode="&#x221e;" horiz-adv-x="1195" 
d="M556 791c78 100 140.333 163.832 187 191.499s95.334 41.5 146.001 41.5c73.333 0 139.666 -26.167 198.999 -78.5s89 -133.166 89 -242.499c0 -112 -28 -196 -84 -252s-124 -84 -204 -84c-58.667 0 -111.167 16.5 -157.5 49.5s-104.833 94.167 -175.5 183.5
c-90.667 -114 -186.667 -171 -288 -171c-74.667 0 -134.5 27.5 -179.5 82.5s-67.5 116.5 -67.5 184.5c0 62 21.167 122 63.5 180s103.5 87 183.5 87c101.333 0 197.333 -57.333 288 -172zM625 696.999c54.667 -85.333 101.832 -143 141.499 -173s79.5 -45 119.5 -45
c46 0 87.5 16.833 124.5 50.5s55.5 88.167 55.5 163.5c0 69.333 -17.167 123 -51.5 161s-78.166 57 -131.499 57c-37.333 0 -73.333 -13.333 -108 -40s-84.667 -84.667 -150 -174zM486.998 695.999c-81.333 104.667 -154.667 157 -220 157
c-40.667 0 -73.334 -14.333 -98.001 -43s-37 -65.667 -37 -111s13 -82.833 39 -112.5s58.667 -44.5 98 -44.5c66.667 0 139.334 51.333 218.001 154z" />
    <glyph glyph-name="integral" unicode="&#x222b;" horiz-adv-x="555" 
d="M198 608c0 382.667 17.6631 630.833 52.9961 744.5s96.333 170.5 183 170.5c30.667 0 58.834 -9.83301 84.501 -29.5s38.5 -45.834 38.5 -78.501c0 -28.667 -8.33301 -53 -25 -73s-39 -30 -67 -30c-23.333 0 -48.666 11.667 -75.999 35
c-15.333 13.333 -28.666 20 -39.999 20c-26.667 0 -40 -21 -40 -63c0 -28 3 -76.333 9 -145c24.667 -273.333 37 -501 37 -683c0 -424.667 -15.5 -703.5 -46.5 -836.5s-95.167 -199.5 -192.5 -199.5c-37.333 0 -66.5 11.167 -87.5 33.5s-31.5 51.5 -31.5 87.5
c0 28.667 8.33301 52.334 25 71.001s38.334 28 65.001 28s50 -11 70 -33c18.667 -20.667 34.667 -31 48 -31c26 0 39 20.333 39 61c0 27.333 -3 67.333 -9 120c-24.667 210.667 -37 487.667 -37 831z" />
    <glyph glyph-name="approxequal" unicode="&#x2248;" horiz-adv-x="1366" 
d="M1231 901c-103.333 -85.333 -201 -128 -293 -128c-40.667 0 -80.334 6 -119.001 18s-103 39 -193 81c-84.667 40 -149 60 -193 60c-90 0 -189.333 -47 -298 -141v169c104.667 86 206.334 129 305.001 129c62 0 159.667 -31.333 293 -94
c90.667 -42.667 158.667 -64 204 -64c88.667 0 186.667 46.333 294 139v-169zM1231 431c-103.333 -85.333 -201 -128 -293 -128c-40.667 0 -80.334 5.83301 -119.001 17.5s-103 38.5 -193 80.5c-84.667 40 -149 60 -193 60c-90 0 -189.333 -46.667 -298 -140v169
c104.667 85.333 206.334 128 305.001 128c62 0 159.667 -31.333 293 -94c90.667 -42.667 158.667 -64 204 -64c86 0 184 46.667 294 140v-169z" />
    <glyph glyph-name="notequal" unicode="&#x2260;" horiz-adv-x="1366" 
d="M873 1009h358v-157h-419l-123 -313h542v-157h-603l-207 -528h-135l206 528h-357v157h419l123 313h-542v157h603l207 528h135z" />
    <glyph glyph-name="lessequal" unicode="&#x2264;" horiz-adv-x="1366" 
d="M1231 368l-1096 460v141l1096 460v-170l-882 -361l882 -360v-170zM135 119h1096v-157h-1096v157z" />
    <glyph glyph-name="greaterequal" unicode="&#x2265;" horiz-adv-x="1366" 
d="M135 1429l1096 -460v-141l-1096 -460v170l882 360l-882 361v170zM135 119h1096v-157h-1096v157z" />
    <glyph glyph-name="lozenge" unicode="&#x25ca;" horiz-adv-x="1012" 
d="M548 1422l418 -713l-418 -709h-111l-391 709l391 713h111zM494 1325l-340 -616l340 -615l359 615z" />
    <glyph glyph-name="fi" unicode="&#xf001;" 
d="M723 1192l-170 -23c-6 63.333 -31 95 -75 95c-30 0 -50 -13.167 -60 -39.5s-15 -78.833 -15 -157.5v-99h587v-799h154v-169h-495v169h151v630h-397v-630h150v-169h-492v169h152v630h-152v169h152v99c0 144 27 238.667 81 284s114 68 180 68c74 0 132 -22.667 174 -68
s67 -98.333 75 -159zM899 1410c30.667 0 57.5 -10.833 80.5 -32.5s34.5 -48.834 34.5 -81.501c0 -32 -11.333 -59.333 -34 -82s-49.667 -34 -81 -34c-32 0 -59.167 11.333 -81.5 34s-33.5 50 -33.5 82c0 32.667 11.333 59.834 34 81.501s49.667 32.5 81 32.5z" />
    <glyph glyph-name="fl" unicode="&#xf002;" 
d="M62 169h146v630h-146v169h146v84c0 133.333 23.5 227.833 70.5 283.5s107.5 83.5 181.5 83.5c36 0 77 -9.33301 123 -28h404v-1222h156v-169h-496v169h150v1053h-250c-22.667 24.667 -44.667 37 -66 37c-26.667 0 -47.167 -12.5 -61.5 -37.5s-21.5 -78.167 -21.5 -159.5
v-94h167v-169h-167v-630h149v-169h-485v169z" />
    <glyph glyph-name="glyph1" horiz-adv-x="0" 
 />
    <glyph glyph-name="glyph2" horiz-adv-x="512" 
 />
    </font>
</defs>
</svg>
